<?xml version="1.0" standalone="no"?>
<!DOCTYPE svg PUBLIC "-//W3C//DTD SVG 1.1//EN" "http://www.w3.org/Graphics/SVG/1.1/DTD/svg11.dtd" >
<svg xmlns="http://www.w3.org/2000/svg" xmlns:xlink="http://www.w3.org/1999/xlink" version="1.1">
<metadata>
Created by FontForge 20160407 at Mon Oct 24 10:57:45 2016
 By Jimmy Wärting
Copyright (c) Carter &#38; Cone Type, Inc., 2003. All rights reserved.
</metadata>
<defs>
<font id="MillerDisplay-Light" horiz-adv-x="500" >
  <font-face 
    font-family="MillerDisplay Light"
    font-weight="300"
    font-stretch="normal"
    units-per-em="1000"
    panose-1="2 0 5 3 9 0 0 2 0 4"
    ascent="764"
    descent="-236"
    x-height="451"
    cap-height="683"
    bbox="-138 -228 1139 947"
    underline-thickness="20"
    underline-position="-133"
    stemh="13"
    stemv="70"
    unicode-range="U+0009-FB02"
  />
<missing-glyph 
 />
    <glyph glyph-name="fi" unicode="fi" horiz-adv-x="556" 
d="M533 0h-211v10c18 1 28 1 42 6c19 6 29 23 29 45v312c-2 20 -5 36 -14 50h-202v-354c0 -22 9 -39 27 -46c15 -6 45 -10 63 -11v-12h-231v12c18 1 24 1 39 5c24 7 32 24 32 46v360h-103v26h103v32c0 83 25 148 73 200c28 31 81 66 144 66c95 0 144 -49 144 -106
c0 -21 -12 -57 -48 -57c-20 0 -49 11 -49 45c0 33 12 45 16 53c-1 15 -8 47 -69 47c-70 0 -141 -64 -141 -218v-62h177l101 8l7 -7v-382c0 -22 9 -39 27 -46c15 -6 26 -11 44 -12v-10z" />
    <glyph glyph-name="fl" unicode="fl" horiz-adv-x="559" 
d="M394 681c-17 22 -54 48 -91 48c-79 0 -119 -56 -125 -214c-1 -15 -1 -49 -1 -66h125v-26h-125v-354c0 -22 8 -39 26 -46c15 -6 46 -10 64 -11v-12h-231v12c18 1 30 1 44 6c19 6 27 24 27 46v359h-103v26h103v33c0 84 19 155 67 207c37 40 88 58 147 58c29 0 60 -8 82 -19
l54 18l7 -7v-671c0 -22 9 -39 27 -47c15 -7 26 -10 44 -11v-10h-212v10c18 1 30 1 44 6c19 6 27 24 27 46v619z" />
    <glyph glyph-name="f_f_l" unicode="ffl" horiz-adv-x="847" 
d="M324 0v12c18 1 30 1 44 6c19 6 27 24 27 46v359h-218v-354c0 -22 8 -39 26 -46c15 -6 46 -10 64 -11v-12h-231v12c18 1 30 1 44 6c19 6 27 24 27 46v359h-103v26h103v26c0 84 26 151 72 200c37 40 92 65 146 65c81 0 111 -36 125 -66c4 6 6 8 12 15c37 40 88 58 147 58
c29 0 60 -8 82 -19l54 18l7 -7v-671c0 -22 9 -39 27 -47c15 -7 26 -10 44 -11v-10h-212v10c18 1 30 1 44 6c19 6 27 24 27 46v619c-17 22 -53 48 -91 48c-79 0 -119 -56 -125 -214c-1 -15 -1 -49 -1 -66h125v-26h-125v-354c0 -22 8 -39 26 -46c15 -6 46 -10 64 -11v-12h-231
zM409 591c-25 1 -41 12 -41 38c0 35 17 39 21 51c-6 22 -26 42 -71 42c-65 0 -135 -56 -141 -214c-1 -15 0 -42 0 -59h218v33c0 39 4 76 14 109z" />
    <glyph glyph-name="f_f_i" unicode="ffi" horiz-adv-x="848" 
d="M616 747c95 0 144 -49 144 -106c0 -21 -12 -57 -48 -57c-20 0 -49 11 -49 45c0 33 12 45 16 53c-1 15 -8 47 -69 47c-70 0 -141 -64 -141 -218v-62h176l102 8l7 -7v-382c0 -22 9 -39 27 -46c15 -6 26 -11 44 -12v-10h-212v10c18 1 28 1 42 6c19 6 29 23 29 45v312
c0 20 -5 36 -14 50h-201v-354c0 -22 9 -39 27 -46c15 -6 45 -10 63 -11v-12h-231v12c18 1 30 2 44 7c19 6 27 23 27 45v359h-222v-354c0 -22 9 -38 27 -45c15 -6 47 -11 65 -12v-12h-233v12c18 1 30 2 44 7c19 6 27 23 27 45v359h-103v26h103v27c0 83 25 147 72 200
c28 32 92 64 147 64c79 0 116 -43 130 -77c38 49 97 84 160 84zM417 591c-26 0 -45 15 -45 38c0 33 18 42 21 50c-2 15 -19 43 -74 43c-58 0 -143 -59 -143 -216v-57h223v30c0 38 6 82 18 112z" />
    <glyph glyph-name="f_j" unicode="fj" horiz-adv-x="546" 
d="M393 374c0 20 -5 36 -14 50h-203v-355c0 -22 9 -39 27 -46c15 -6 46 -10 64 -11v-12h-231v12c18 1 24 1 39 5c24 7 32 24 32 46v361h-103v25h103v32c0 83 25 148 73 200c28 31 81 66 144 66c95 0 144 -49 144 -106c0 -21 -12 -57 -48 -57c-20 0 -49 11 -49 45
c0 33 12 45 16 53c-1 15 -8 47 -69 47c-70 0 -141 -64 -141 -218v-62h177l101 8l7 -7v-411c0 -83 -13 -156 -63 -207c-42 -42 -72 -57 -117 -57c-48 0 -91 25 -91 66c0 21 21 46 51 46c25 0 50 -13 50 -44c0 -16 -10 -33 -8 -43c3 -1 22 -4 25 -4c63 0 84 54 84 215v363z
" />
    <glyph glyph-name="f_f" unicode="ff" horiz-adv-x="584" 
d="M598 747c65 0 88 -43 88 -80c0 -16 -16 -42 -44 -42c-27 0 -45 19 -45 46c0 9 3 27 6 44c-5 8 -17 14 -28 14c-65 0 -100 -56 -106 -214c-1 -15 -1 -49 -1 -66h126v-26h-126v-354c0 -22 9 -39 27 -46c15 -6 46 -10 64 -11v-12h-227v12c18 1 25 2 39 7c19 6 27 23 27 45
v359h-221v-354c0 -22 9 -39 27 -46c15 -6 45 -10 63 -11v-12h-231v12c18 1 30 1 44 6c19 6 27 24 27 46v359h-103v26h103v27c0 83 25 147 72 200c28 32 92 64 147 64c79 0 114 -32 128 -66c34 52 103 73 144 73zM413 591c-26 0 -41 15 -41 38c0 33 18 42 21 50
c-2 15 -19 43 -74 43c-58 0 -142 -59 -142 -216v-57h221v30c0 38 6 80 15 112z" />
    <glyph glyph-name=".notdef" 
 />
    <glyph glyph-name="NUL" horiz-adv-x="0" 
 />
    <glyph glyph-name="Eth" unicode="&#xd0;" horiz-adv-x="766" 
d="M153 354h-107v18h107v233c0 22 -7 41 -31 51s-52 14 -70 15v12h310c132 0 364 -72 364 -346c0 -233 -198 -337 -384 -337h-294v12c20 0 61 4 74 9c24 9 31 27 31 49v284zM234 372h157v-18h-157v-257c7 -51 34 -80 117 -80c190 0 278 135 278 320c0 188 -120 330 -302 330
c-24 0 -69 -1 -93 -3v-292z" />
    <glyph glyph-name="eth" unicode="&#xf0;" horiz-adv-x="525" 
d="M293 649l-111 -74l-9 15l108 72c-27 33 -55 54 -78 69l4 14c26 -13 61 -34 98 -67l89 60l9 -15l-85 -57c75 -71 150 -189 150 -377c0 -151 -59 -303 -212 -303c-116 0 -226 76 -226 244c0 140 91 235 222 235c61 0 110 -32 132 -66l4 1c-14 117 -53 196 -95 249zM389 241
c0 124 -52 210 -137 210c-102 0 -146 -98 -146 -216c0 -145 54 -234 144 -234c94 0 139 107 139 240z" />
    <glyph glyph-name="Lslash" unicode="&#x141;" horiz-adv-x="611" 
d="M234 339v-232c0 -85 9 -92 120 -92c58 0 141 6 160 27c24 27 79 118 86 147h14l-16 -189h-545v12c18 1 56 5 69 10c24 9 31 28 31 50v238l-94 -34l-6 17l100 36v273c0 22 -6 39 -31 50c-18 8 -51 18 -69 19v12h285v-12c-18 -1 -55 -8 -73 -14c-25 -8 -31 -28 -31 -50
v-248l143 52l7 -17z" />
    <glyph glyph-name="lslash" unicode="&#x142;" horiz-adv-x="293" 
d="M183 334v-266c0 -22 9 -39 27 -47c15 -7 26 -10 44 -11v-10h-212v10c18 1 30 1 44 6c19 6 27 24 27 46v247l-91 -33l-6 17l97 35v322c0 23 -11 46 -27 57c-12 8 -51 18 -69 19v10l159 10l7 -7v-386l90 33l7 -17z" />
    <glyph glyph-name="Scaron" unicode="&#x160;" horiz-adv-x="522" 
d="M485 193c0 -129 -97 -205 -201 -205c-72 0 -129 29 -177 63l-34 -61h-17l-7 228h14c49 -132 111 -209 225 -209c93 0 139 56 139 135c0 62 -34 109 -95 135c-63 27 -82 34 -147 64c-74 34 -115 82 -115 174c0 105 76 177 174 177c60 0 124 -32 159 -61l34 61h17l5 -226
h-15c-42 126 -94 205 -208 205c-72 0 -116 -48 -116 -105c0 -63 25 -97 83 -128c53 -28 89 -39 138 -63c88 -42 144 -78 144 -184zM109 938l10 9l140 -139l143 139l10 -9c-53 -77 -88 -138 -112 -175c-13 -19 -18 -22 -41 -22c-22 0 -28 4 -39 20c-25 36 -58 99 -111 177z
" />
    <glyph glyph-name="scaron" unicode="&#x161;" horiz-adv-x="383" 
d="M347 125c0 -84 -70 -138 -157 -138c-51 0 -93 21 -121 40l-19 -31h-11l-5 150h12c19 -81 72 -142 148 -142c79 0 110 40 110 96c0 53 -40 72 -121 97c-80 25 -137 56 -137 140c0 73 53 127 138 127c44 0 80 -14 104 -30l19 31h11l7 -133h-12c-15 64 -67 117 -134 117
c-62 0 -90 -35 -90 -81c0 -60 38 -70 122 -97c83 -27 136 -63 136 -146zM39 736l10 9l140 -139l143 139l10 -9c-53 -77 -88 -138 -112 -175c-13 -19 -18 -22 -41 -22c-22 0 -28 4 -39 20c-25 36 -58 99 -111 177z" />
    <glyph glyph-name="Yacute" unicode="&#xdd;" horiz-adv-x="586" 
d="M622 671c-9 0 -39 -8 -49 -12c-19 -7 -37 -20 -59 -51c-47 -65 -116 -186 -164 -275c-20 -37 -27 -76 -27 -102v-153c0 -24 8 -40 31 -50c12 -5 64 -15 82 -16v-12h-308v12c18 1 69 6 82 11c24 9 31 28 31 50v200c0 12 -14 40 -23 62c-43 87 -92 180 -133 252
c-17 30 -36 54 -60 68c-18 11 -40 15 -59 16v12h292v-12c-35 -2 -106 -10 -106 -34c0 -14 91 -182 161 -311c73 114 172 274 172 297c0 31 -77 45 -123 48v12h260v-12zM397 897c0 -25 -12 -34 -37 -54c-30 -24 -66 -50 -146 -114l-10 9c51 74 77 115 99 152
c18 31 33 43 59 43c23 0 35 -17 35 -36z" />
    <glyph glyph-name="yacute" unicode="&#xfd;" horiz-adv-x="448" 
d="M471 440c-16 -2 -61 -25 -74 -56c-15 -35 -76 -181 -121 -288c-21 -50 -37 -93 -45 -111c-74 -171 -113 -210 -174 -210c-24 0 -67 15 -67 60c0 23 20 51 51 51c19 0 45 -9 45 -44v-34c41 10 92 95 128 185c-78 205 -107 278 -155 396c-12 30 -43 46 -72 50v12h196v-13
c-23 -1 -55 -8 -55 -23c0 -4 4 -12 7 -21c19 -53 77 -197 118 -305h1c41 98 76 182 116 286c3 8 7 20 7 28c0 19 -61 34 -77 36v12h171v-11zM328 695c0 -25 -12 -34 -37 -54c-30 -24 -66 -50 -146 -114l-10 9c51 74 77 115 99 152c18 31 33 43 59 43c23 0 35 -17 35 -36z
" />
    <glyph glyph-name="HT" unicode="&#x9;" horiz-adv-x="0" 
 />
    <glyph glyph-name="Thorn" unicode="&#xde;" horiz-adv-x="599" 
d="M368 535c96 0 195 -61 195 -160c0 -133 -120 -195 -239 -195h-90v-109c0 -22 7 -41 31 -50c14 -5 53 -8 81 -9v-12h-293v12c18 1 56 5 69 10c24 9 31 28 31 50v534c0 22 -5 38 -31 48c-18 7 -55 16 -73 17v12h289v-12c-18 -1 -55 -6 -73 -12c-25 -8 -31 -26 -31 -48v-76
h134zM464 350c0 72 -30 168 -150 168h-80v-319h61c159 0 169 119 169 151z" />
    <glyph glyph-name="thorn" unicode="&#xfe;" horiz-adv-x="547" 
d="M515 222c0 -138 -110 -234 -229 -234c-59 0 -92 14 -115 31h-4c0 17 0 -185 0 -171c0 -22 10 -41 28 -48c15 -6 49 -13 67 -14v-12h-245v12c18 1 40 3 54 8c19 6 26 70 26 48c0 -39 0 845 0 816c-2 21 -10 39 -26 50c-12 8 -37 16 -55 17v10l142 11l7 -6v-340l4 -1
c23 25 72 65 135 65c115 0 211 -96 211 -242zM435 223c0 104 -43 210 -154 210c-52 0 -88 -25 -114 -54v-294c11 -34 50 -84 121 -84c84 0 147 80 147 222z" />
    <glyph glyph-name="CR" horiz-adv-x="0" 
 />
    <glyph glyph-name="Zcaron" unicode="&#x17d;" horiz-adv-x="602" 
d="M595 200l-23 -200h-569v6l479 659h-198c-25 0 -51 0 -71 -2c-65 -11 -143 -116 -152 -159h-17l21 179h517v-6l-479 -659h220c40 0 120 7 142 25c46 38 91 103 112 157h18zM149 938l10 9l140 -139l143 139l10 -9c-53 -77 -88 -138 -112 -175c-13 -19 -18 -22 -41 -22
c-22 0 -28 4 -39 20c-25 36 -58 99 -111 177z" />
    <glyph glyph-name="zcaron" unicode="&#x17e;" horiz-adv-x="424" 
d="M397 0h-371v13l285 424c-71 0 -174 2 -204 -10c-24 -10 -37 -54 -47 -102h-16v126h351v-6l-288 -431c36 -1 62 -1 88 -1c23 0 72 1 116 3c26 1 36 21 43 41c6 16 24 64 30 90h13v-147zM60 736l10 9l140 -139l143 139l10 -9c-53 -77 -88 -138 -112 -175
c-13 -19 -18 -22 -41 -22c-22 0 -28 4 -39 20c-25 36 -58 99 -111 177z" />
    <glyph glyph-name="onehalf" unicode="&#xbd;" horiz-adv-x="577" 
d="M424 339h-252v12c15 1 59 3 70 6c14 4 24 17 24 32v304c-9 -2 -28 -3 -43 -3c-26 0 -54 18 -79 37l4 9c18 -7 52 -16 77 -16c56 0 82 17 106 29h13c-6 -29 -10 -71 -10 -102v-255c0 -14 8 -27 23 -32c11 -4 54 -8 67 -9v-12zM524 248h-465v21h465v-21zM495 -96l-63 -131
h-298v28c88 57 139 84 188 132c61 60 72 99 72 155c0 53 -34 80 -87 80c-71 0 -130 -60 -130 -110c0 -25 13 -49 53 -49c47 0 66 35 79 57l7 -6c-21 -35 -59 -81 -124 -81c-34 0 -61 20 -61 62c0 64 86 141 185 141c90 0 151 -47 151 -105c0 -84 -51 -135 -203 -207
c-13 -6 -47 -31 -61 -42h202c35 0 57 42 82 80z" />
    <glyph glyph-name="onequarter" unicode="&#xbc;" horiz-adv-x="591" 
d="M426 339h-252v12c15 1 59 3 70 6c14 4 24 17 24 32v304c-9 -2 -28 -3 -43 -3c-26 0 -54 18 -79 37l4 9c18 -7 52 -16 77 -16c56 0 82 17 106 29h13c-6 -29 -10 -71 -10 -102v-255c0 -14 8 -27 23 -32c11 -4 54 -8 67 -9v-12zM526 248h-465v21h465v-21zM489 -152h-8
c-1 19 -8 43 -22 54c-11 9 -40 7 -83 7v-84c0 -14 6 -26 20 -31c10 -4 36 -8 50 -9v-12h-204v12c13 1 41 3 50 6c13 4 21 16 21 30v88h-212v27l250 248h25v-247c41 0 70 -1 84 9c12 9 20 33 20 49h9v-147zM313 -63v190l-191 -190h191z" />
    <glyph glyph-name="onesuperior" unicode="&#xb9;" horiz-adv-x="613" 
d="M595 291c0 -42 -33 -74 -75 -74c-47 0 -61 41 -116 50l-9 -8c-4 -24 -19 -45 -39 -60l-1 -10c16 -21 35 -31 53 -39c30 -14 55 -38 55 -76c0 -40 -35 -76 -78 -76c-40 0 -75 32 -75 75c0 31 18 53 18 94v11l-7 5c-7 -1 -13 -1 -20 -1c-21 0 -40 7 -56 18l-13 -1
c-14 -21 -18 -42 -21 -61c-7 -43 -28 -83 -78 -83c-40 0 -77 33 -77 77c0 43 36 75 83 75c17 0 45 -2 74 13l3 14c-6 13 -10 28 -10 43c0 9 1 17 3 25l-5 13c-9 3 -18 3 -27 3c-28 0 -44 -7 -64 -7c-44 0 -77 35 -77 76s33 77 76 77c36 0 56 -20 67 -42
c11 -23 14 -56 38 -81l15 1c18 19 43 30 69 30l11 7c0 53 -34 73 -34 114c0 44 35 73 76 73c44 0 74 -35 74 -76c0 -64 -58 -59 -88 -116l4 -12c23 -12 41 -32 48 -58l12 -6c55 20 60 70 118 70c40 0 73 -34 73 -77zM368 278c0 38 -28 68 -67 68c-38 0 -67 -30 -67 -68
c0 -39 29 -70 67 -70c39 0 67 31 67 70z" />
    <glyph glyph-name="threequarters" unicode="&#xbe;" horiz-adv-x="591" 
d="M458 478c0 -87 -99 -146 -213 -146c-60 0 -135 31 -135 91c0 34 26 56 53 56c21 0 35 -14 35 -37c0 -34 -35 -25 -35 -48c0 -22 32 -47 82 -47c66 0 141 60 141 129c0 41 -14 77 -61 77c-25 0 -51 -23 -78 -45l-12 17c84 46 147 73 147 138c0 45 -34 69 -74 69
c-34 0 -110 -30 -110 -81c0 -23 21 -37 45 -37c28 0 38 19 49 28l7 -7c-18 -23 -50 -46 -80 -46c-54 0 -71 18 -71 47c0 54 92 110 178 110c94 0 124 -55 124 -88c0 -31 -31 -71 -114 -91c54 0 122 -20 122 -89zM526 248h-465v21h465v-21zM489 -152h-8c-1 19 -8 43 -22 54
c-11 9 -40 7 -83 7v-84c0 -14 6 -26 20 -31c10 -4 36 -8 50 -9v-12h-204v12c13 1 41 3 50 6c13 4 21 16 21 30v88h-212v27l250 248h25v-247c41 0 70 -1 84 9c12 9 20 33 20 49h9v-147zM313 -63v190l-191 -190h191z" />
    <glyph glyph-name="threesuperior" unicode="&#xb3;" horiz-adv-x="613" 
d="M595 291c0 -42 -33 -74 -75 -74c-47 0 -61 41 -116 50l-9 -8c-4 -24 -19 -45 -39 -60l-1 -10c16 -21 35 -31 53 -39c30 -14 55 -38 55 -76c0 -40 -35 -76 -78 -76c-40 0 -75 32 -75 75c0 31 18 53 18 94v11l-7 5c-7 -1 -13 -1 -20 -1c-21 0 -40 7 -56 18l-13 -1
c-14 -21 -18 -42 -21 -61c-7 -43 -28 -83 -78 -83c-40 0 -77 33 -77 77c0 43 36 75 83 75c17 0 45 -2 74 13l3 14c-6 13 -10 28 -10 43c0 9 1 17 3 25l-5 13c-9 3 -18 3 -27 3c-28 0 -44 -7 -64 -7c-44 0 -77 35 -77 76s33 77 76 77c36 0 56 -20 67 -42
c11 -23 14 -56 38 -81l15 1c18 19 43 30 69 30l11 7c0 53 -34 73 -34 114c0 44 35 73 76 73c44 0 74 -35 74 -76c0 -64 -58 -59 -88 -116l4 -12c23 -12 41 -32 48 -58l12 -6c55 20 60 70 118 70c40 0 73 -34 73 -77zM368 278c0 38 -28 68 -67 68c-38 0 -67 -30 -67 -68
c0 -39 29 -70 67 -70c39 0 67 31 67 70z" />
    <glyph glyph-name="twosuperior" unicode="&#xb2;" horiz-adv-x="613" 
d="M595 291c0 -42 -33 -74 -75 -74c-47 0 -61 41 -116 50l-9 -8c-4 -24 -19 -45 -39 -60l-1 -10c16 -21 35 -31 53 -39c30 -14 55 -38 55 -76c0 -40 -35 -76 -78 -76c-40 0 -75 32 -75 75c0 31 18 53 18 94v11l-7 5c-7 -1 -13 -1 -20 -1c-21 0 -40 7 -56 18l-13 -1
c-14 -21 -18 -42 -21 -61c-7 -43 -28 -83 -78 -83c-40 0 -77 33 -77 77c0 43 36 75 83 75c17 0 45 -2 74 13l3 14c-6 13 -10 28 -10 43c0 9 1 17 3 25l-5 13c-9 3 -18 3 -27 3c-28 0 -44 -7 -64 -7c-44 0 -77 35 -77 76s33 77 76 77c36 0 56 -20 67 -42
c11 -23 14 -56 38 -81l15 1c18 19 43 30 69 30l11 7c0 53 -34 73 -34 114c0 44 35 73 76 73c44 0 74 -35 74 -76c0 -64 -58 -59 -88 -116l4 -12c23 -12 41 -32 48 -58l12 -6c55 20 60 70 118 70c40 0 73 -34 73 -77zM368 278c0 38 -28 68 -67 68c-38 0 -67 -30 -67 -68
c0 -39 29 -70 67 -70c39 0 67 31 67 70z" />
    <glyph glyph-name="brokenbar" unicode="&#xa6;" horiz-adv-x="292" 
d="M161 363h-30v383h30v-383zM161 -207h-30v392h30v-392z" />
    <glyph glyph-name="minus" unicode="&#x2212;" horiz-adv-x="556" 
d="M519 245h-482v29h482v-29z" />
    <glyph glyph-name="multiply" unicode="&#xd7;" horiz-adv-x="556" 
d="M481 36l-202 202l-202 -202l-22 22l202 202l-202 202l21 20l201 -201l203 203l23 -23l-203 -203l201 -201z" />
    <glyph glyph-name="space" unicode=" " horiz-adv-x="240" 
 />
    <glyph glyph-name="space" unicode="&#xa0;" horiz-adv-x="240" 
 />
    <glyph glyph-name="exclam" unicode="!" horiz-adv-x="359" 
d="M235 641c0 -35 -34 -258 -45 -434h-16c-7 174 -43 398 -43 434c0 32 21 61 52 61s52 -29 52 -61zM240 50c0 -32 -26 -57 -58 -57s-57 25 -57 57s25 58 57 58s58 -26 58 -58z" />
    <glyph glyph-name="quotedbl" unicode="&#x22;" horiz-adv-x="368" 
d="M324 690c0 27 -13 49 -44 49c-32 0 -44 -22 -44 -49c0 -24 15 -54 35 -195h15c24 140 38 174 38 195zM132 690c0 27 -13 49 -44 49c-32 0 -44 -22 -44 -49c0 -24 19 -54 39 -195h11c24 140 38 174 38 195z" />
    <glyph glyph-name="numbersign" unicode="#" horiz-adv-x="572" 
d="M473 242l-114 -28v-221h-14v216l-117 -29v-187h-13v182l-114 -28v74l114 28v108l-114 -28v73l114 28v197h13v-192l117 29v163h14v-158l114 28v-74l-114 -28v-108l114 28v-73zM345 283v108l-117 -30v-108z" />
    <glyph glyph-name="dollar" unicode="$" horiz-adv-x="597" 
d="M364 616c83 -14 138 -60 138 -117c0 -49 -25 -69 -47 -69c-20 0 -40 16 -40 44c0 36 29 40 38 72c-8 24 -39 45 -89 54v-249c79 -12 160 -43 160 -163c0 -72 -46 -162 -160 -188v-142h-13v140c-17 -3 -36 -5 -56 -5c-9 0 -18 0 -27 2v-137h-13v138
c-93 13 -173 69 -173 138c0 48 24 78 55 78c27 0 41 -21 41 -49c0 -16 -6 -32 -17 -43c-5 -5 -12 -10 -17 -20c0 -56 59 -80 111 -88v267c-72 12 -161 45 -161 154c0 71 47 160 161 182v98h13v-96c13 2 28 3 43 3c14 0 27 -1 40 -2v95h13v-97zM255 598
c-74 -15 -104 -63 -104 -109c0 -78 45 -108 104 -122v231zM351 602c-13 1 -26 2 -40 2c-16 0 -30 -1 -43 -3v-236c25 -5 53 -8 83 -12v249zM351 14v252c-24 6 -49 8 -83 11v-267c9 -1 19 -1 27 -1c21 0 40 2 56 5zM364 263v-247c82 21 106 77 106 123c0 68 -40 106 -106 124
z" />
    <glyph glyph-name="percent" unicode="%" horiz-adv-x="838" 
d="M375 461c0 -85 -80 -151 -157 -151c-74 0 -149 50 -149 151c0 95 82 159 149 159c75 0 157 -45 157 -159zM646 676l-430 -774l-19 10l429 774zM769 137c0 -87 -81 -151 -157 -151c-75 0 -149 51 -149 150c0 94 83 160 149 160c75 0 157 -44 157 -159zM312 460
c0 89 -32 144 -91 144c-62 0 -90 -61 -90 -139c0 -79 27 -138 92 -138c50 0 89 50 89 133zM706 135c0 87 -32 144 -91 144c-63 0 -90 -64 -90 -139c0 -77 28 -138 92 -138c48 0 89 54 89 133z" />
    <glyph glyph-name="ampersand" unicode="&#x26;" horiz-adv-x="725" 
d="M465 149c42 -50 78 -91 98 -103c35 -22 90 -32 130 -34v-12h-204c-7 10 -35 46 -74 94c-70 -72 -122 -110 -196 -110c-99 0 -183 59 -183 171c0 90 60 151 167 219c-51 80 -71 119 -71 170c0 90 81 154 162 154c88 0 126 -67 126 -131c0 -76 -73 -133 -141 -173
c36 -54 109 -152 173 -230c67 88 92 170 92 204c0 24 -45 40 -98 51v12h289v-12c-57 -6 -105 -14 -138 -49c-16 -17 -70 -142 -132 -221zM379 564c0 68 -31 113 -85 113c-77 0 -90 -89 -90 -112c0 -45 20 -95 66 -156c74 39 109 88 109 155zM404 108
c-57 70 -130 165 -190 252c-66 -39 -95 -101 -95 -175c0 -82 48 -146 132 -146c59 0 108 25 153 69z" />
    <glyph glyph-name="quotesingle" unicode="'" horiz-adv-x="176" 
d="M132 690c0 27 -13 49 -44 49c-32 0 -44 -22 -44 -49c0 -24 15 -54 35 -195h15c24 140 38 174 38 195z" />
    <glyph glyph-name="parenleft" unicode="(" horiz-adv-x="355" 
d="M310 -147l-22 -13c-116 88 -243 214 -243 455c0 232 120 359 242 453l23 -14c-113 -87 -228 -217 -228 -439c0 -227 122 -365 228 -442z" />
    <glyph glyph-name="parenright" unicode=")" horiz-adv-x="355" 
d="M25 735l22 13c116 -88 243 -214 243 -455c0 -232 -120 -359 -242 -453l-23 14c113 87 228 217 228 439c0 227 -122 365 -228 442z" />
    <glyph glyph-name="asterisk" unicode="*" horiz-adv-x="389" 
d="M325 482c0 -16 -12 -23 -22 -23c-11 0 -58 45 -105 77c5 -45 17 -108 17 -120c0 -11 -8 -21 -22 -21s-21 9 -21 21c0 15 11 73 17 120c-48 -31 -96 -77 -108 -77c-10 0 -21 11 -21 23c0 23 53 31 127 64c-71 31 -127 41 -127 65c0 11 9 22 20 22c16 0 61 -47 109 -77
c-6 43 -17 105 -17 120c0 13 7 21 21 21c16 0 22 -10 22 -21c0 -13 -13 -75 -18 -120c49 34 93 77 108 77c11 0 20 -10 20 -22c0 -24 -55 -33 -125 -65c67 -29 125 -41 125 -64z" />
    <glyph glyph-name="plus" unicode="+" horiz-adv-x="556" 
d="M519 245h-227v-226h-28v226h-227v29h227v227h28v-227h227v-29z" />
    <glyph glyph-name="comma" unicode="," horiz-adv-x="228" 
d="M177 16c0 -97 -101 -157 -129 -175l-9 17c53 33 95 80 99 146h-32c-42 0 -57 27 -57 54c0 24 21 51 55 51c52 0 73 -38 73 -93z" />
    <glyph glyph-name="hyphen" unicode="-" horiz-adv-x="387" 
d="M348 222h-308v54h308v-54z" />
    <glyph glyph-name="hyphen" unicode="&#xad;" horiz-adv-x="387" 
d="M348 222h-308v54h308v-54z" />
    <glyph glyph-name="period" unicode="." horiz-adv-x="228" 
d="M173 50c0 -32 -26 -57 -58 -57s-57 25 -57 57s25 58 57 58s58 -26 58 -58z" />
    <glyph glyph-name="slash" unicode="/" horiz-adv-x="402" 
d="M369 744l-313 -952l-29 8l313 952z" />
    <glyph glyph-name="zero" unicode="0" horiz-adv-x="593" 
d="M541 317c0 -204 -118 -330 -249 -330c-157 0 -240 140 -240 302c0 205 120 330 249 330c155 0 240 -138 240 -302zM457 304c0 160 -51 299 -159 299c-89 0 -162 -121 -162 -301c0 -166 52 -299 158 -299c88 0 163 121 163 301z" />
    <glyph glyph-name="one" unicode="1" horiz-adv-x="411" 
d="M367 0h-284v12c18 1 64 3 78 8c18 6 30 25 30 47v477c-15 -5 -27 -7 -52 -7c-26 0 -67 25 -103 55l5 9c30 -13 64 -23 96 -23c54 0 103 24 132 42h9c-7 -42 -14 -102 -14 -147v-401c0 -21 11 -40 29 -48c15 -7 56 -11 74 -12v-12z" />
    <glyph glyph-name="two" unicode="2" horiz-adv-x="557" 
d="M486 156l-55 -156h-394l-5 9c125 100 181 150 253 228c92 98 115 175 115 247c0 78 -55 118 -109 118c-118 0 -179 -120 -179 -205c0 -42 14 -62 51 -62c44 0 76 35 94 59l9 -7c-30 -46 -69 -76 -131 -76c-37 0 -84 21 -84 84c0 86 98 224 257 224c96 0 168 -64 168 -152
c0 -140 -91 -227 -314 -370l-43 -33h257c49 0 79 55 99 97z" />
    <glyph glyph-name="three" unicode="3" horiz-adv-x="551" 
d="M483 195c0 -133 -121 -221 -273 -221c-82 0 -179 48 -179 137c0 45 25 71 58 71c27 0 45 -13 45 -44c0 -34 -38 -20 -38 -60c0 -37 31 -88 120 -88c83 0 186 84 186 213c0 69 -29 104 -83 104c-38 0 -65 -29 -95 -57l-13 15c93 66 185 126 185 234c0 57 -31 103 -100 103
c-64 0 -148 -54 -148 -144c0 -36 18 -55 47 -55c28 0 49 19 64 37l8 -8c-20 -24 -64 -58 -100 -58c-57 0 -78 35 -78 69c0 81 104 177 223 177c101 0 162 -58 162 -130c0 -62 -46 -122 -140 -149l-20 -15c6 1 38 4 45 4c53 0 124 -31 124 -135z" />
    <glyph glyph-name="four" unicode="4" horiz-adv-x="542" 
d="M498 119h-8c-1 33 -14 77 -32 86c-24 12 -72 8 -104 8v-143c0 -23 8 -40 26 -48c15 -7 49 -9 67 -10v-12h-255v12c18 1 54 2 67 6c19 6 25 23 25 45v150h-261v20l330 396h1v-378c71 0 91 0 101 7c18 13 33 54 34 83h9v-222zM284 251v271l-224 -271h224z" />
    <glyph glyph-name="five" unicode="5" 
d="M456 623c-40 -84 -152 -116 -227 -116c-24 0 -61 3 -67 4l-41 -178c43 38 95 50 131 50c93 0 187 -68 187 -189c0 -128 -121 -208 -225 -208c-118 0 -177 60 -177 116c0 48 34 55 48 55c22 0 40 -14 40 -37c0 -22 -12 -22 -12 -43c0 -30 30 -75 100 -75
c114 0 147 132 147 241c0 78 -48 123 -115 123c-54 0 -115 -29 -135 -81l-18 3l75 329h18c24 -22 61 -40 126 -40c66 0 97 21 135 54z" />
    <glyph glyph-name="six" unicode="6" horiz-adv-x="543" 
d="M513 608c0 -31 -11 -50 -40 -50c-40 0 -37 43 -51 77c-12 29 -30 42 -69 42c-89 0 -183 -136 -211 -338l4 -2c43 55 89 83 160 83c99 0 180 -87 180 -205c0 -91 -56 -228 -222 -228c-134 0 -204 128 -204 280c0 242 177 433 336 433c91 0 117 -59 117 -92zM403 219
c0 107 -45 175 -133 175c-64 0 -136 -57 -136 -197c0 -110 58 -194 129 -194c117 0 140 133 140 216z" />
    <glyph glyph-name="seven" unicode="7" horiz-adv-x="498" 
d="M512 590c-74 -109 -130 -209 -179 -335c-37 -94 -65 -170 -73 -303c-2 -34 -13 -71 -51 -71c-31 0 -43 18 -43 56c0 60 71 199 125 303c50 97 102 196 158 291h-288c-77 0 -100 -103 -106 -129l-14 4l57 245h12l7 -56h395v-5z" />
    <glyph glyph-name="eight" unicode="8" horiz-adv-x="540" 
d="M476 173c0 -118 -126 -186 -224 -186c-114 0 -188 69 -188 149c0 85 68 146 132 170v6c-65 30 -111 80 -111 141c0 102 105 172 193 172c113 0 176 -60 176 -143c0 -49 -35 -115 -113 -147v-6c53 -18 135 -66 135 -156zM404 492c0 65 -51 117 -121 117
c-74 0 -122 -56 -122 -121c0 -76 58 -126 157 -147c70 29 86 93 86 151zM396 144c0 95 -82 136 -176 157c-53 -22 -97 -99 -97 -166s38 -132 132 -132c71 0 141 51 141 141z" />
    <glyph glyph-name="nine" unicode="9" horiz-adv-x="543" 
d="M482 325c0 -211 -116 -426 -336 -426c-89 0 -126 63 -126 97c0 39 18 53 43 53c42 0 34 -58 48 -85c16 -32 43 -43 71 -43c128 0 208 172 224 353c1 6 -5 7 -9 1c-24 -35 -74 -89 -163 -89c-87 0 -175 71 -175 205c0 110 78 228 207 228c120 0 216 -81 216 -294zM411 395
c0 123 -60 208 -144 208c-95 0 -127 -93 -127 -188c0 -121 32 -199 129 -199c55 0 142 47 142 179z" />
    <glyph glyph-name="colon" unicode=":" horiz-adv-x="327" 
d="M222 391c0 -32 -26 -57 -59 -57c-32 0 -58 25 -58 57s26 59 58 59c33 0 59 -27 59 -59zM222 52c0 -33 -26 -58 -59 -58c-32 0 -58 25 -58 58s26 59 58 59c33 0 59 -26 59 -59z" />
    <glyph glyph-name="semicolon" unicode=";" horiz-adv-x="327" 
d="M219 391c0 -32 -25 -57 -56 -57c-30 0 -55 25 -55 57s25 59 55 59c31 0 56 -27 56 -59zM225 16c0 -97 -101 -157 -129 -175l-9 17c53 33 95 80 99 146h-32c-42 0 -57 27 -57 54c0 24 21 51 55 51c52 0 73 -38 73 -93z" />
    <glyph glyph-name="less" unicode="&#x3c;" horiz-adv-x="556" 
d="M495 35l-442 215v20l442 215v-29l-405 -196l405 -196v-29z" />
    <glyph glyph-name="equal" unicode="=" horiz-adv-x="556" 
d="M499 334h-442v27h442v-27zM499 159h-442v27h442v-27z" />
    <glyph glyph-name="greater" unicode="&#x3e;" horiz-adv-x="556" 
d="M503 250l-442 -215v29l405 196l-405 196v29l442 -215v-20z" />
    <glyph glyph-name="question" unicode="?" horiz-adv-x="458" 
d="M410 504c0 -117 -90 -194 -219 -212l-4 -126h-17v188c69 11 162 31 162 144c0 133 -56 186 -128 186c-25 0 -55 -3 -65 -19c5 -31 6 -56 2 -73c-7 -19 -20 -30 -45 -30c-27 0 -40 20 -40 46c0 43 48 91 148 91c145 0 206 -93 206 -195zM239 50c0 -32 -26 -57 -58 -57
s-58 25 -58 57s26 58 58 58s58 -26 58 -58z" />
    <glyph glyph-name="at" unicode="@" horiz-adv-x="982" 
d="M948 117c-60 -206 -246 -332 -441 -332c-199 0 -420 128 -420 394c0 242 200 477 481 477c218 0 326 -159 326 -322c0 -165 -126 -301 -251 -301c-47 0 -86 30 -85 90l-3 1c-25 -45 -74 -89 -121 -89c-36 0 -103 22 -103 133c0 73 77 258 220 258c36 0 73 -22 78 -66h3
l23 60h48l-92 -263c-6 -16 -11 -42 -11 -55c0 -35 19 -58 46 -58c103 0 235 112 235 296c0 165 -126 298 -315 298c-193 0 -406 -167 -406 -454c0 -233 164 -373 345 -373c213 0 371 117 435 308zM624 335c-9 58 -34 79 -80 79c-88 0 -160 -172 -160 -260
c0 -85 35 -99 52 -99c59 0 100 49 131 107z" />
    <glyph glyph-name="A" unicode="A" horiz-adv-x="674" 
d="M700 0h-290v12c35 2 105 13 105 38c0 7 -1 17 -4 24l-70 176h-252c-23 -57 -38 -96 -47 -128c-7 -23 -12 -42 -12 -56c0 -36 75 -52 119 -54v-12h-275v12c19 1 49 8 68 19c23 13 49 41 64 78c71 171 160 395 235 585h14c102 -256 204 -523 241 -615c8 -20 17 -36 41 -50
c18 -11 44 -16 63 -17v-12zM433 271l-118 301l-118 -301h236z" />
    <glyph glyph-name="B" unicode="B" horiz-adv-x="645" 
d="M596 179c0 -123 -143 -179 -199 -179h-347v12c18 1 59 8 72 13c24 9 31 25 31 47v533c0 22 -7 40 -31 50c-22 9 -48 15 -66 16v12h332c63 0 172 -33 172 -139c0 -111 -76 -145 -172 -174v-5c59 -6 208 -47 208 -186zM463 534c0 108 -74 133 -131 133c-19 0 -68 -1 -97 -2
v-293h78c114 0 150 75 150 162zM496 203c0 76 -56 148 -159 148c-21 0 -80 -1 -102 -2v-260c8 -56 34 -71 100 -71c138 0 161 107 161 185z" />
    <glyph glyph-name="C" unicode="C" horiz-adv-x="629" 
d="M625 173c-38 -89 -113 -188 -265 -188c-197 0 -321 139 -321 348c0 201 149 361 344 361c51 0 116 -21 162 -61l31 61h19l4 -246h-13c-33 105 -107 220 -248 220c-94 0 -205 -91 -205 -331c0 -194 114 -316 252 -316c126 0 187 75 220 163z" />
    <glyph glyph-name="D" unicode="D" horiz-adv-x="766" 
d="M726 337c0 -233 -198 -337 -384 -337h-294v12c20 0 61 4 74 9c24 9 31 27 31 49v535c0 22 -7 41 -31 51s-52 14 -70 15v12h310c132 0 364 -72 364 -346zM629 337c0 188 -120 328 -302 328c-24 0 -69 -1 -93 -3v-563c7 -51 34 -80 117 -80c190 0 278 133 278 318z" />
    <glyph glyph-name="E" unicode="E" horiz-adv-x="648" 
d="M625 187l-13 -187h-569v12c18 1 64 5 79 11c24 9 31 27 31 49v533c0 22 -6 39 -31 49c-19 8 -61 16 -79 17v12h528v-151h-17c-10 43 -57 123 -99 129c-24 3 -51 4 -83 4h-138v-300h97c56 0 71 21 83 33c15 15 25 65 28 91h17v-275h-17c-2 29 -16 83 -28 96
c-13 14 -29 33 -83 33h-97v-231c0 -82 19 -91 120 -91c71 0 154 -3 178 22c30 31 68 114 78 144h15z" />
    <glyph glyph-name="F" unicode="F" horiz-adv-x="593" 
d="M576 524h-17c-9 43 -62 131 -103 137c-24 4 -56 4 -88 4h-134v-302h110c49 0 67 20 80 34c12 13 24 49 28 90h17v-278h-17c-2 29 -16 81 -28 97s-35 35 -80 35h-110v-266c0 -22 8 -39 31 -49c12 -5 59 -13 77 -14v-12h-299v12c18 1 64 3 79 9c24 9 31 26 31 48v536
c0 22 -6 39 -31 49c-19 8 -61 16 -79 17v12h533v-159z" />
    <glyph glyph-name="G" unicode="G" horiz-adv-x="726" 
d="M739 284c-18 -3 -56 -5 -75 -14c-24 -12 -30 -31 -30 -53v-240l-10 -3l-52 61c-71 -27 -155 -50 -242 -50c-130 0 -293 122 -293 338c0 203 169 371 347 371c87 0 151 -27 201 -61l34 61h17l6 -239h-14c-28 91 -112 217 -261 217c-119 0 -234 -120 -234 -346
c0 -180 111 -316 242 -316c126 0 185 71 185 139v56c0 29 -7 55 -33 64c-28 10 -93 14 -111 15v15h323v-15z" />
    <glyph glyph-name="H" unicode="H" horiz-adv-x="838" 
d="M786 0h-285v12c18 1 59 4 72 9c24 9 31 27 31 49v276h-370v-271c0 -22 8 -39 31 -49c12 -5 54 -13 72 -14v-12h-285v12c18 1 57 4 70 9c24 9 31 27 31 49v535c0 22 -7 39 -31 49c-17 7 -52 16 -70 17v12h285v-12c-18 -1 -54 -6 -72 -12c-25 -8 -31 -27 -31 -49v-242h370
v237c0 22 -8 39 -31 49c-17 7 -54 16 -72 17v12h285v-12c-18 -1 -52 -6 -70 -12c-25 -8 -31 -27 -31 -49v-535c0 -22 8 -38 31 -49c12 -6 52 -13 70 -14v-12z" />
    <glyph glyph-name="I" unicode="I" horiz-adv-x="391" 
d="M340 0h-289v12c18 1 60 4 73 9c24 9 31 26 31 48v537c0 22 -5 38 -31 48c-18 7 -55 16 -73 17v12h289v-12c-18 -1 -55 -6 -73 -12c-25 -8 -31 -26 -31 -48v-537c0 -22 8 -38 31 -48c12 -5 55 -13 73 -14v-12z" />
    <glyph glyph-name="J" unicode="J" horiz-adv-x="461" 
d="M433 671c-18 -1 -60 -6 -78 -12c-25 -8 -31 -27 -31 -49v-419c0 -65 -57 -207 -209 -207c-98 0 -119 58 -119 84c0 31 24 62 59 62s56 -25 56 -57c0 -28 -14 -56 -39 -68v-3c2 -1 14 -3 16 -3c155 0 155 128 155 230v376c0 22 -7 37 -31 49c-23 12 -63 16 -84 17v12h305
v-12z" />
    <glyph glyph-name="K" unicode="K" horiz-adv-x="704" 
d="M746 0h-356v12c21 0 46 2 69 6c28 5 48 17 48 35c0 40 -219 252 -258 286h-15v-264c0 -22 8 -39 31 -49c12 -5 59 -14 77 -14v-12h-290v12c18 1 57 4 70 9c24 9 31 27 31 49v535c0 22 -7 39 -31 49c-16 7 -52 16 -70 17v12h285v-12c-18 -1 -54 -6 -72 -12
c-25 -8 -31 -27 -31 -49v-257h8c132 104 259 229 259 281c0 16 -15 25 -30 29c-25 6 -57 8 -61 8v12h280v-12c-26 0 -105 -3 -143 -47c-79 -92 -146 -168 -235 -241c115 -114 196 -191 279 -292c19 -23 42 -50 78 -65c18 -8 59 -13 77 -14v-12z" />
    <glyph glyph-name="L" unicode="L" horiz-adv-x="611" 
d="M614 189l-16 -189h-545v12c18 1 56 5 69 10c24 9 31 28 31 50v530c0 22 -6 39 -31 50c-18 8 -51 18 -69 19v12h285v-12c-18 -1 -55 -8 -73 -14c-25 -8 -31 -28 -31 -50v-497c0 -85 9 -92 120 -92c58 0 141 6 160 27c24 27 79 115 86 144h14z" />
    <glyph glyph-name="M" unicode="M" horiz-adv-x="938" 
d="M891 0h-306v12c18 1 74 5 88 12c23 12 32 28 32 51v517l-268 -581h-8c-15 46 -32 89 -55 139l-204 437v-407c0 -76 12 -120 34 -138c17 -14 89 -29 107 -30v-12h-290v12c17 2 69 7 93 24s33 62 33 139v387c0 41 -11 65 -31 81c-24 19 -63 27 -90 28v12h186l259 -547
l213 462c13 29 21 72 22 85h184v-12c-18 -1 -56 -6 -74 -12c-25 -8 -31 -27 -31 -49v-535c0 -22 8 -38 31 -49c12 -6 57 -13 75 -14v-12z" />
    <glyph glyph-name="N" unicode="N" horiz-adv-x="770" 
d="M778 671c-18 0 -77 -17 -89 -24c-29 -17 -35 -71 -35 -133v-523h-25l-459 581v-391c0 -76 14 -119 36 -137c17 -14 89 -31 107 -32v-12h-292v12c19 2 78 19 90 26c23 13 36 53 36 138v374c0 35 -11 62 -32 79c-24 20 -79 39 -111 43v11h177l450 -569v394
c0 70 -12 121 -34 134c-19 12 -82 28 -107 29v12h288v-12z" />
    <glyph glyph-name="O" unicode="O" horiz-adv-x="760" 
d="M720 346c0 -102 -27 -190 -100 -263c-63 -63 -143 -98 -244 -98c-89 0 -169 34 -233 96s-103 145 -103 253c0 116 39 203 100 265c64 65 151 99 240 99c90 0 171 -28 249 -105c57 -57 91 -153 91 -247zM626 343c0 216 -103 335 -246 335c-144 0 -246 -119 -246 -346
c0 -185 86 -327 246 -327c161 0 246 140 246 338z" />
    <glyph glyph-name="P" unicode="P" horiz-adv-x="599" 
d="M563 523c0 -133 -120 -195 -239 -195h-90v-257c0 -22 7 -41 31 -50c14 -5 53 -8 81 -9v-12h-293v12c18 1 56 5 69 10c24 9 31 28 31 50v536c0 22 -6 44 -31 51c-28 8 -57 11 -75 12v12h321c96 0 195 -61 195 -160zM464 498c0 71 -30 168 -150 168h-80v-319h61
c157 0 169 116 169 151z" />
    <glyph glyph-name="Q" unicode="Q" horiz-adv-x="764" 
d="M552 49c22 -105 102 -125 161 -125c54 0 95 47 117 81l12 -9c-24 -38 -98 -117 -197 -117c-53 0 -153 22 -171 128c-27 -11 -65 -20 -100 -20c-92 0 -175 33 -241 100c-60 61 -95 143 -95 247c0 112 32 201 101 267c68 65 150 97 239 97c91 0 172 -29 250 -106
c57 -57 90 -153 90 -246c0 -127 -66 -233 -166 -297zM207 79c34 102 115 129 171 129c83 0 153 -70 171 -146c47 51 74 143 74 281c0 163 -67 335 -245 335c-151 0 -246 -132 -246 -339c0 -115 25 -202 75 -260zM472 20c-15 139 -80 162 -129 162c-17 0 -92 -10 -123 -117
c42 -41 101 -59 158 -59c33 0 68 4 94 14z" />
    <glyph glyph-name="R" unicode="R" horiz-adv-x="706" 
d="M702 129c0 -94 -26 -140 -106 -140c-74 0 -104 59 -121 171c-11 73 -32 179 -146 179h-95v-268c0 -22 7 -41 31 -50c14 -5 57 -8 75 -9v-12h-287v12c18 1 56 5 69 10c24 9 31 28 31 50v537c0 22 -6 43 -31 50c-17 5 -51 11 -69 12v12h337c77 0 192 -45 192 -154
s-114 -154 -185 -174v-7c45 -3 131 -34 150 -104c15 -55 21 -107 35 -156c11 -39 28 -54 55 -54s48 19 48 95v21h17v-21zM483 514c0 119 -70 152 -141 152h-108v-305h80c89 0 169 41 169 153z" />
    <glyph glyph-name="S" unicode="S" horiz-adv-x="522" 
d="M485 193c0 -129 -97 -205 -201 -205c-72 0 -129 29 -177 63l-34 -61h-17l-7 228h14c49 -132 111 -209 225 -209c93 0 139 56 139 135c0 62 -34 109 -95 135c-63 27 -82 34 -147 64c-74 34 -115 82 -115 174c0 105 76 177 174 177c60 0 124 -32 159 -61l34 61h17l5 -226
h-15c-42 126 -94 205 -208 205c-72 0 -116 -48 -116 -105c0 -63 25 -97 83 -128c53 -28 89 -39 138 -63c88 -42 144 -78 144 -184z" />
    <glyph glyph-name="T" unicode="T" horiz-adv-x="629" 
d="M622 512h-12c-11 44 -65 143 -108 149c-24 3 -56 4 -83 4h-63v-587c0 -22 8 -40 31 -50c12 -5 64 -15 82 -16v-12h-308v12c18 1 69 6 82 11c24 9 31 28 31 50v592h-64c-20 0 -58 -1 -82 -4c-43 -6 -98 -105 -108 -149h-13v171h615v-171z" />
    <glyph glyph-name="U" unicode="U" horiz-adv-x="771" 
d="M764 671c-18 0 -72 -12 -91 -23c-29 -17 -33 -78 -33 -132v-330c0 -112 -92 -202 -253 -202c-160 0 -247 88 -247 175v445c0 22 -8 38 -31 50c-18 9 -54 16 -70 17v12h286v-12c-18 -1 -54 -7 -72 -13c-25 -8 -31 -27 -31 -49v-425c0 -93 60 -164 187 -164
c139 0 208 73 208 165v325c0 69 -11 121 -34 134c-28 16 -84 26 -109 27v12h290v-12z" />
    <glyph glyph-name="V" unicode="V" horiz-adv-x="659" 
d="M689 672c-19 -1 -47 -11 -65 -20c-23 -12 -37 -39 -51 -72c-41 -95 -171 -404 -249 -588h-18c-93 257 -193 528 -225 618c-6 17 -16 31 -38 45c-18 11 -49 15 -66 16v12h285v-12c-16 2 -96 -7 -96 -35c0 -7 3 -19 5 -26c32 -95 101 -282 180 -495c65 152 147 344 177 416
c10 24 22 67 22 86c0 33 -75 52 -117 55v11h256v-11z" />
    <glyph glyph-name="W" unicode="W" horiz-adv-x="937" 
d="M964 671c-19 -1 -47 -8 -65 -19c-26 -16 -42 -37 -51 -63c-41 -123 -128 -384 -200 -597h-17c-60 209 -124 413 -164 539l-191 -539h-18c-78 262 -153 524 -178 614c-6 22 -14 34 -36 48c-18 11 -46 16 -65 17v12h287v-12c-35 -2 -109 -13 -109 -37c0 -6 2 -19 4 -25
c14 -45 75 -246 143 -471l146 410c2 7 4 16 4 25c0 27 -13 60 -44 80c-14 9 -56 17 -74 18v12h285v-12c-35 -2 -98 -14 -98 -38c0 -7 2 -18 4 -25c13 -42 77 -239 148 -465c54 156 99 292 122 373c16 55 21 75 21 101c0 35 -71 51 -117 54v12h263v-12z" />
    <glyph glyph-name="X" unicode="X" horiz-adv-x="746" 
d="M349 311c-66 -84 -180 -225 -180 -256c0 -41 71 -43 111 -43v-12h-284v12c15 1 47 4 67 13c39 17 61 35 82 62c57 72 126 160 190 240c-39 52 -153 206 -204 269c-17 21 -28 41 -65 62c-12 7 -56 13 -68 13v12h336v-12c-16 -1 -44 -1 -73 -8c-20 -5 -35 -13 -35 -30
c0 -19 8 -43 158 -243c85 104 165 201 165 242c0 20 -15 29 -47 35c-21 4 -51 4 -65 4v12h284v-12c-15 -1 -51 -4 -71 -13c-39 -17 -60 -42 -76 -62c-41 -53 -104 -133 -175 -225c83 -108 175 -229 219 -283c15 -18 47 -52 65 -64c12 -8 42 -11 68 -12v-12h-336v12
c17 1 54 1 82 9c21 6 27 17 27 27c0 31 -59 113 -175 263z" />
    <glyph glyph-name="Y" unicode="Y" horiz-adv-x="586" 
d="M622 671c-9 0 -39 -8 -49 -12c-19 -7 -37 -20 -59 -51c-47 -65 -116 -186 -164 -275c-20 -37 -27 -76 -27 -102v-153c0 -24 8 -40 31 -50c12 -5 64 -15 82 -16v-12h-308v12c18 1 69 6 82 11c24 9 31 28 31 50v200c0 12 -14 40 -23 62c-43 87 -92 180 -133 252
c-17 30 -36 54 -60 68c-18 11 -40 15 -59 16v12h292v-12c-35 -2 -106 -10 -106 -34c0 -14 91 -182 161 -311c73 114 172 274 172 297c0 31 -77 45 -123 48v12h260v-12z" />
    <glyph glyph-name="Z" unicode="Z" horiz-adv-x="602" 
d="M595 200l-23 -200h-569v6l479 659h-198c-25 0 -51 0 -71 -2c-65 -11 -143 -116 -152 -159h-17l21 179h517v-6l-479 -659h220c40 0 120 7 142 25c46 38 91 103 112 157h18z" />
    <glyph glyph-name="bracketleft" unicode="[" horiz-adv-x="592" 
d="M538 -141c0 -26 -20 -48 -29 -57l-10 4c8 7 20 26 20 43c0 12 4 44 -92 44s-199 -15 -328 -44l-23 -8v886l23 -8c128 -29 232 -44 328 -44s92 24 92 44c0 17 -8 31 -16 42l10 4c11 -8 25 -34 25 -56c0 -63 -49 -105 -138 -105c-112 0 -185 41 -294 96v-832
c109 55 182 96 294 96c89 0 138 -42 138 -105z" />
    <glyph glyph-name="backslash" unicode="\" horiz-adv-x="402" 
d="M27 744l29 8l313 -952l-29 -8z" />
    <glyph glyph-name="bracketright" unicode="]" horiz-adv-x="592" 
d="M58 -141c0 63 49 105 138 105c112 0 185 -41 294 -96v832c-109 -55 -182 -96 -294 -96c-89 0 -138 42 -138 105c0 22 14 48 25 56l10 -4c-8 -11 -16 -25 -16 -42c0 -20 -4 -44 92 -44s200 15 328 44l23 8v-886l-23 8c-129 29 -232 44 -328 44s-92 -32 -92 -44
c0 -17 12 -36 20 -43l-10 -4c-9 9 -29 31 -29 57z" />
    <glyph glyph-name="asciicircum" unicode="^" horiz-adv-x="865" 
d="M838 595c0 -78 -63 -122 -166 -122c55 -24 95 -69 95 -172c0 -124 -131 -319 -405 -319c-152 0 -302 103 -302 235c0 87 54 123 109 153c-36 25 -71 57 -71 126c0 62 70 139 148 139c96 0 151 -61 169 -132l-7 -3c-34 54 -71 88 -126 88c-67 0 -121 -58 -121 -127
c0 -32 3 -69 23 -85c28 10 61 24 89 24c36 0 58 -14 58 -39c0 -21 -12 -37 -38 -37c-46 0 -86 17 -117 36c-12 -5 -59 -30 -59 -94c0 -102 99 -213 331 -213c190 0 296 132 296 253c0 119 -80 171 -156 171c-61 0 -116 -41 -116 -99c0 -64 39 -89 86 -89c31 0 38 5 54 15
c-28 11 -59 20 -59 56c0 34 26 48 40 48c23 0 59 -11 59 -61c0 -38 -33 -75 -84 -75c-56 0 -120 36 -120 118c0 108 105 137 166 137c26 0 86 -5 109 -5c56 0 95 35 95 78c0 64 -42 85 -80 85c-29 0 -40 -19 -40 -29c8 -10 40 -12 40 -43c0 -32 -14 -44 -38 -44
c-22 0 -50 17 -50 60c0 33 33 69 85 69c57 0 103 -36 103 -103z" />
    <glyph glyph-name="underscore" unicode="_" horiz-adv-x="596" 
d="M603 -140h-610v30h610v-30z" />
    <glyph glyph-name="grave" unicode="`" 
d="M145 695c0 19 12 36 35 36c26 0 41 -12 59 -43c22 -37 48 -78 99 -152l-10 -9c-80 64 -116 90 -146 114c-25 20 -37 29 -37 54z" />
    <glyph glyph-name="a" unicode="a" horiz-adv-x="463" 
d="M470 115c-8 -92 -37 -123 -86 -123c-41 0 -69 22 -82 67h-3c-37 -45 -96 -69 -148 -69c-69 0 -114 37 -114 101c0 82 48 108 98 127c57 22 123 40 166 64v68c0 53 -26 100 -96 100c-38 0 -58 -21 -66 -33c1 -18 7 -51 7 -68c0 -21 -20 -38 -49 -38c-25 0 -34 24 -34 47
c0 59 76 106 150 106c93 0 160 -21 160 -148c0 -87 -5 -191 -5 -224c0 -34 11 -60 43 -60c29 0 41 28 46 83h13zM302 258c-112 -32 -189 -64 -189 -155c0 -55 25 -85 74 -85c50 0 84 28 111 61z" />
    <glyph glyph-name="b" unicode="b" horiz-adv-x="535" 
d="M503 224c0 -136 -112 -237 -224 -237c-50 0 -118 27 -151 46l-37 -56l-9 2c3 40 4 113 4 185v487c0 29 -11 47 -27 57c-12 7 -48 15 -66 16v12l155 10l7 -7v-334l3 -1c23 25 73 60 136 60c117 0 209 -95 209 -240zM424 225c0 102 -44 208 -155 208
c-52 0 -88 -21 -114 -50v-283c12 -34 48 -98 122 -98c83 0 147 80 147 223z" />
    <glyph glyph-name="c" unicode="c" horiz-adv-x="421" 
d="M408 104c-38 -77 -99 -114 -174 -114c-130 0 -202 100 -202 238c0 122 81 236 212 236c97 0 149 -57 149 -116c0 -32 -16 -51 -45 -51c-16 0 -47 9 -47 45c0 44 12 43 12 62c-6 32 -33 47 -70 47c-69 0 -133 -64 -133 -215c0 -117 52 -216 143 -216c63 0 99 21 144 91z
" />
    <glyph glyph-name="d" unicode="d" horiz-adv-x="548" 
d="M538 8l-147 -9l-7 7v43l-4 1c-22 -23 -71 -62 -134 -62c-120 0 -214 94 -214 244c0 136 111 232 230 232c63 0 109 -22 121 -27v208c0 26 -11 47 -26 58c-17 12 -61 20 -88 22v11l177 10l7 -7v-658c0 -21 10 -38 26 -49c12 -8 41 -11 59 -12v-12zM383 73v289
c-12 36 -50 88 -125 88c-84 0 -147 -89 -147 -230c0 -103 49 -203 161 -203c52 0 83 27 111 56z" />
    <glyph glyph-name="e" unicode="e" horiz-adv-x="435" 
d="M418 107c-34 -71 -96 -117 -176 -117c-144 0 -210 110 -210 240c0 118 73 234 199 234c130 0 178 -87 178 -201v-7h-300v-10c0 -128 43 -226 151 -226c79 0 108 33 146 94zM334 276c0 92 -17 174 -101 174c-70 0 -121 -65 -124 -176z" />
    <glyph glyph-name="f" unicode="f" horiz-adv-x="302" 
d="M394 669c0 -15 -16 -41 -44 -41c-27 0 -45 19 -45 46c0 10 2 22 6 41c-6 9 -17 14 -28 14c-65 0 -99 -56 -105 -214c-1 -15 -1 -49 -1 -66h125v-26h-125v-354c0 -22 8 -39 26 -46c15 -6 46 -10 64 -11v-12h-231v12c18 1 30 1 44 6c19 6 27 24 27 46v359h-103v26h103v33
c0 84 19 155 67 207c37 40 91 58 132 58c65 0 88 -41 88 -78z" />
    <glyph glyph-name="g" unicode="g" horiz-adv-x="494" 
d="M499 416c0 -29 -13 -48 -38 -48c-36 0 -47 28 -43 76c-14 0 -50 -11 -74 -33v-5c19 -26 32 -67 32 -93c0 -87 -84 -142 -156 -142h-53c-22 -7 -46 -21 -46 -47c0 -52 64 -51 110 -53c28 -1 80 -4 100 -5c71 -4 136 -53 136 -133c0 -90 -87 -158 -240 -158
c-144 0 -209 44 -209 121c0 59 54 103 157 114v5c-37 10 -104 29 -104 87c0 45 52 64 82 77v3c-70 31 -106 78 -106 136c0 92 74 146 166 146c58 0 113 -24 134 -32c20 10 56 27 95 27c33 0 57 -14 57 -43zM303 316c0 70 -25 134 -93 134c-70 0 -89 -61 -89 -131
c0 -75 37 -132 90 -132c63 0 92 61 92 129zM407 -85c0 37 -13 63 -53 77c-23 3 -59 7 -156 7c-89 -11 -116 -45 -116 -105c0 -57 40 -104 160 -104c106 0 165 41 165 125z" />
    <glyph glyph-name="h" unicode="h" horiz-adv-x="559" 
d="M537 0h-224v12c20 1 36 2 51 6c21 6 31 24 31 46v256c0 70 -45 109 -92 109c-79 0 -124 -50 -136 -73v-287c0 -22 11 -38 29 -46c16 -7 32 -10 51 -11v-12h-221v12c18 1 30 1 44 6c19 6 27 24 27 46v587c0 25 -11 47 -27 58c-12 8 -48 14 -66 15v12l156 10l7 -7v-357h2
c38 37 78 82 164 82c93 0 133 -63 133 -158v-238c0 -22 9 -38 27 -46c14 -6 26 -9 44 -10v-12z" />
    <glyph glyph-name="i" unicode="i" horiz-adv-x="270" 
d="M186 662c0 -30 -22 -57 -53 -57c-28 0 -51 24 -51 51c0 28 23 54 51 54c32 0 53 -23 53 -48zM247 0h-211v10c18 1 30 1 44 6c19 6 27 26 27 46v307c0 21 -12 39 -28 50c-12 8 -40 18 -58 19v8l148 11l7 -7v-382c0 -22 9 -38 27 -47c17 -6 32 -10 44 -11v-10z" />
    <glyph glyph-name="j" unicode="j" horiz-adv-x="274" 
d="M197 662c0 -30 -22 -57 -53 -57c-27 0 -51 24 -51 51c0 28 24 54 51 54c32 0 53 -23 53 -48zM190 39c0 -83 -13 -156 -63 -207c-42 -42 -72 -57 -117 -57c-48 0 -91 25 -91 66c0 21 21 46 51 46c25 0 50 -13 50 -44c0 -16 -10 -33 -8 -43c3 -1 22 -4 25 -4
c63 0 84 54 84 215v353c0 21 -12 43 -27 53c-12 8 -64 19 -82 20v9l171 11l7 -7v-411z" />
    <glyph glyph-name="k" unicode="k" horiz-adv-x="514" 
d="M522 0h-135c-24 78 -97 224 -172 224c-29 0 -40 -11 -48 -18v-139c0 -22 10 -38 28 -45c16 -6 30 -11 49 -12v-10h-218v10c18 1 30 1 44 6c19 6 27 24 27 46v590c0 27 -11 47 -27 58s-48 15 -66 16v10l156 10l7 -7v-515c36 32 129 122 171 168c7 8 12 14 12 21
c0 17 -47 24 -73 27v11h195v-10c-58 -17 -77 -24 -114 -57c-40 -36 -66 -62 -101 -97c101 -47 135 -130 194 -238c7 -13 22 -22 38 -30c18 -9 32 -9 33 -9v-10z" />
    <glyph glyph-name="l" unicode="l" horiz-adv-x="263" 
d="M239 0h-212v10c18 1 30 1 44 6c19 6 27 24 27 46v588c0 25 -11 46 -27 57c-12 8 -51 18 -69 19v10l159 10l7 -7v-671c0 -22 9 -39 27 -47c15 -7 26 -10 44 -11v-10z" />
    <glyph glyph-name="m" unicode="m" horiz-adv-x="856" 
d="M838 0h-223v12c19 1 30 2 45 6c22 6 32 24 32 46v258c0 69 -44 107 -91 107c-79 0 -120 -52 -133 -72v-288c0 -22 10 -39 29 -47c14 -6 28 -9 48 -10v-12h-220v12c19 1 27 2 42 6c22 6 32 24 32 46v258c0 69 -44 107 -91 107c-79 0 -119 -53 -133 -73v-286
c0 -22 12 -39 30 -47c16 -7 30 -10 50 -11v-12h-221v12c18 1 30 1 44 6c19 6 28 24 28 46v306c0 21 -11 36 -27 47c-12 8 -34 18 -52 19v10l140 11l7 -7v-70h3c40 38 76 84 162 84c62 0 104 -37 128 -87c42 39 78 87 164 87c93 0 131 -69 131 -164v-231c0 -22 9 -39 27 -47
c14 -6 31 -9 49 -10v-12z" />
    <glyph glyph-name="n" unicode="n" horiz-adv-x="568" 
d="M545 0h-223v12c20 1 36 2 51 6c21 6 31 24 31 46v256c0 70 -46 109 -93 109c-79 0 -124 -50 -136 -73v-287c0 -22 11 -38 30 -46c16 -7 33 -10 51 -11v-12h-222v12c18 1 30 1 44 6c19 6 28 24 28 46v303c0 21 -11 42 -27 53c-12 8 -31 15 -49 16v10l138 11l7 -7v-68h2
c38 37 76 82 162 82c93 0 135 -63 135 -158v-238c0 -22 9 -38 27 -46c14 -6 26 -9 44 -10v-12z" />
    <glyph glyph-name="o" unicode="o" horiz-adv-x="502" 
d="M471 231c0 -131 -83 -244 -226 -244c-112 0 -214 91 -214 236c0 142 89 241 223 241c132 0 217 -102 217 -233zM394 230c0 108 -37 220 -142 220c-113 0 -144 -120 -144 -218c0 -122 42 -231 144 -231c96 0 142 106 142 229z" />
    <glyph glyph-name="p" unicode="p" horiz-adv-x="547" 
d="M515 222c0 -138 -110 -234 -229 -234c-59 0 -92 14 -115 31h-4v-171c0 -21 10 -41 28 -48c15 -6 49 -13 67 -14v-12h-245v12c18 1 40 3 54 8c19 6 26 30 26 52v523c0 19 -10 39 -26 50c-12 8 -37 16 -55 17v10l142 11l7 -6v-51l4 -1c23 25 73 65 136 65
c117 0 210 -96 210 -242zM435 223c0 104 -43 210 -154 210c-52 0 -88 -25 -114 -54v-294c11 -34 50 -84 121 -84c84 0 147 80 147 222z" />
    <glyph glyph-name="q" unicode="q" horiz-adv-x="534" 
d="M538 -226h-237v12c18 1 41 4 55 8c20 6 27 26 27 48v202l-3 1c-22 -23 -71 -57 -134 -57c-116 0 -214 95 -214 244c0 135 114 232 226 232c82 0 127 -41 141 -48l54 61l8 -3c-2 -40 -8 -140 -8 -182v-442c0 -22 9 -42 27 -50c15 -7 40 -12 58 -14v-12zM383 66v298
c-12 35 -50 86 -125 86c-83 0 -147 -89 -147 -231c0 -103 49 -201 161 -201c52 0 83 21 111 48z" />
    <glyph glyph-name="r" unicode="r" horiz-adv-x="365" 
d="M366 412c0 -29 -16 -54 -46 -54c-26 0 -45 12 -45 42c0 5 2 17 7 28c-53 0 -93 -47 -107 -72v-287c0 -22 9 -39 27 -46c17 -7 45 -10 64 -11v-12h-232v12c18 1 30 1 44 6c19 6 28 24 28 46v303c0 21 -11 42 -27 53c-12 8 -31 15 -49 16v10l138 11l7 -7v-69h2
c44 57 96 81 135 81c25 0 54 -21 54 -50z" />
    <glyph glyph-name="s" unicode="s" horiz-adv-x="383" 
d="M347 125c0 -84 -70 -138 -157 -138c-51 0 -93 21 -121 40l-19 -31h-11l-5 150h12c19 -81 72 -142 148 -142c79 0 110 40 110 96c0 53 -40 72 -121 97c-80 25 -137 56 -137 140c0 73 53 127 138 127c44 0 80 -14 104 -30l19 31h11l7 -133h-12c-15 64 -67 117 -134 117
c-62 0 -90 -35 -90 -81c0 -60 38 -70 122 -97c83 -27 136 -63 136 -146z" />
    <glyph glyph-name="t" unicode="t" horiz-adv-x="333" 
d="M328 119c-10 -69 -42 -127 -118 -127c-75 0 -112 47 -112 135v294h-98v28h100v157h67v-157h137v-28h-136v-288c0 -65 13 -104 70 -104c40 0 64 32 74 90h16z" />
    <glyph glyph-name="u" unicode="u" horiz-adv-x="550" 
d="M526 8l-135 -9l-7 7v61h-3c-38 -38 -72 -78 -158 -78c-93 0 -130 69 -130 163v217c0 21 -10 39 -26 50c-12 8 -31 14 -49 15v11l138 12l8 -7v-324c0 -70 39 -107 87 -107c80 0 118 50 132 71v282c0 21 -10 39 -27 50c-12 8 -41 11 -69 12v11l159 12l7 -7v-370
c0 -21 10 -37 26 -48c12 -8 29 -11 47 -12v-12z" />
    <glyph glyph-name="v" unicode="v" horiz-adv-x="455" 
d="M477 440c-19 -3 -62 -21 -77 -56c-31 -72 -77 -180 -120 -284c-14 -34 -27 -64 -40 -108h-18c-70 177 -94 235 -161 397c-13 32 -46 46 -75 50v12h199v-13c-23 -1 -55 -7 -55 -23c0 -1 3 -11 7 -21c20 -52 77 -195 118 -303h3c41 98 75 180 116 284c2 6 5 20 5 28
c0 23 -57 34 -73 36v12h171v-11z" />
    <glyph glyph-name="w" unicode="w" horiz-adv-x="709" 
d="M735 439c-36 -2 -72 -28 -85 -62c-46 -118 -60 -162 -106 -280c-14 -35 -23 -61 -38 -105h-11c-42 118 -90 239 -129 343c-30 -70 -62 -159 -91 -238c-13 -35 -24 -58 -39 -105h-11c-72 181 -108 270 -162 396c-12 29 -43 48 -71 51v12h197v-13c-25 -1 -56 -5 -56 -23
c0 -1 1 -9 6 -21c21 -52 73 -181 116 -291h2c34 88 69 175 100 263c0 0 -8 22 -13 31c-16 32 -36 39 -66 42v12h179v-12c-23 -1 -50 -4 -50 -21c0 -11 3 -20 8 -32c20 -52 70 -184 108 -285h3c44 117 77 199 103 280c3 9 5 20 5 25c0 25 -57 34 -75 33v12h176v-12z" />
    <glyph glyph-name="x" unicode="x" horiz-adv-x="445" 
d="M246 252c42 -61 88 -129 128 -188c21 -31 31 -45 72 -52v-12h-192v12c26 2 59 9 59 21c0 5 -5 17 -14 31c-7 11 -48 70 -94 137c-39 -53 -73 -103 -96 -135c-7 -10 -10 -16 -10 -23c0 -20 57 -30 68 -31v-12h-167v11c42 15 66 31 88 59c20 26 61 84 107 145
c-50 74 -102 151 -121 179c-26 39 -45 45 -67 45v12h179v-12c-20 0 -51 -7 -51 -15c0 -6 4 -13 9 -21c7 -12 45 -67 92 -136c32 43 60 87 86 126c3 4 4 11 4 17c0 14 -29 23 -60 30v11h166v-11c-43 -13 -72 -28 -89 -51c-22 -30 -58 -85 -97 -137z" />
    <glyph glyph-name="y" unicode="y" horiz-adv-x="448" 
d="M471 440c-16 -2 -61 -25 -74 -56c-15 -35 -76 -181 -121 -288c-21 -50 -37 -93 -45 -111c-74 -171 -113 -210 -174 -210c-24 0 -67 15 -67 60c0 23 20 51 51 51c19 0 45 -9 45 -44v-34c41 10 92 95 128 185c-78 205 -107 278 -155 396c-12 30 -43 46 -72 50v12h196v-13
c-23 -1 -55 -8 -55 -23c0 -4 4 -12 7 -21c19 -53 77 -197 118 -305h1c41 98 76 182 116 286c3 8 7 20 7 28c0 19 -61 34 -77 36v12h171v-11z" />
    <glyph glyph-name="z" unicode="z" horiz-adv-x="424" 
d="M397 0h-371v13l285 424c-71 0 -174 2 -204 -10c-24 -10 -37 -54 -47 -102h-16v126h351v-6l-288 -431c36 -1 62 -1 88 -1c23 0 72 1 116 3c26 1 36 21 43 41c6 16 24 64 30 90h13v-147z" />
    <glyph glyph-name="braceleft" unicode="{" horiz-adv-x="410" 
d="M384 -169c-139 0 -208 27 -208 171c0 41 16 87 16 129c0 106 -67 123 -161 130v53c95 8 161 24 161 130c0 42 -16 88 -16 129c0 144 69 171 208 171v-13c-55 -3 -134 -11 -134 -128c0 -40 9 -74 9 -114c0 -140 -80 -163 -170 -182v-39c89 -19 170 -42 170 -182
c0 -40 -9 -74 -9 -114c0 -118 80 -125 134 -128v-13z" />
    <glyph glyph-name="bar" unicode="|" horiz-adv-x="292" 
d="M161 -207h-30v953h30v-953z" />
    <glyph glyph-name="braceright" unicode="}" horiz-adv-x="410" 
d="M379 261c-94 -7 -161 -24 -161 -130c0 -42 16 -88 16 -129c0 -144 -69 -171 -208 -171v13c54 3 134 10 134 128c0 40 -9 74 -9 114c0 140 81 163 170 182v39c-89 19 -170 42 -170 182c0 40 9 74 9 114c0 117 -79 125 -134 128v13c139 0 208 -27 208 -171
c0 -41 -16 -87 -16 -129c0 -106 66 -122 161 -130v-53z" />
    <glyph glyph-name="asciitilde" unicode="~" horiz-adv-x="520" 
d="M469 329c-16 -58 -62 -119 -127 -119c-80 0 -122 44 -173 44s-86 -20 -109 -63l-9 3c16 58 73 115 138 115c75 0 122 -44 173 -44s75 24 98 67z" />
    <glyph glyph-name="Adieresis" unicode="&#xc4;" horiz-adv-x="674" 
d="M700 0h-290v12c35 2 105 13 105 38c0 7 -1 17 -4 24l-70 176h-252c-23 -57 -38 -96 -47 -128c-7 -23 -12 -42 -12 -56c0 -36 75 -52 119 -54v-12h-275v12c19 1 49 8 68 19c23 13 49 41 64 78c71 171 160 395 235 585h14c102 -256 204 -523 241 -615c8 -20 17 -36 41 -50
c18 -11 44 -16 63 -17v-12zM433 271l-118 301l-118 -301h236zM503 825c0 -29 -22 -53 -51 -53c-28 0 -50 22 -50 49c0 28 22 51 50 51c30 0 51 -22 51 -47zM292 825c0 -29 -22 -53 -52 -53c-27 0 -50 22 -50 49c0 28 23 51 50 51c30 0 52 -22 52 -47z" />
    <glyph glyph-name="Aring" unicode="&#xc5;" horiz-adv-x="674" 
d="M700 0h-290v12c35 2 105 13 105 38c0 7 -1 17 -4 24l-70 176h-252c-23 -57 -38 -96 -47 -128c-7 -23 -12 -42 -12 -56c0 -36 75 -52 119 -54v-12h-275v12c19 1 49 8 68 19c23 13 49 41 64 78c71 171 160 395 235 585h14c102 -256 204 -523 241 -615c8 -20 17 -36 41 -50
c18 -11 44 -16 63 -17v-12zM433 271l-118 301l-118 -301h236zM456 831c0 -57 -41 -98 -109 -98c-69 0 -109 39 -109 98c0 58 47 98 109 98c65 0 109 -39 109 -98zM410 831c0 43 -17 83 -63 83c-44 0 -63 -37 -63 -83c0 -44 17 -83 63 -83s63 38 63 83z" />
    <glyph glyph-name="Ccedilla" unicode="&#xc7;" horiz-adv-x="629" 
d="M443 -134c0 -82 -95 -94 -198 -94v19c62 0 136 -3 136 57c0 38 -46 42 -85 42v101c-160 26 -257 156 -257 342c0 201 149 361 344 361c51 0 116 -21 162 -61l31 61h19l4 -246h-13c-33 105 -107 220 -248 220c-94 0 -205 -91 -205 -331c0 -194 114 -316 252 -316
c126 0 187 75 220 163l20 -11c-38 -89 -113 -188 -265 -188c-15 0 -29 1 -42 3v-46c56 0 125 -16 125 -76z" />
    <glyph glyph-name="Eacute" unicode="&#xc9;" horiz-adv-x="648" 
d="M625 187l-13 -187h-569v12c18 1 64 5 79 11c24 9 31 27 31 49v533c0 22 -6 39 -31 49c-19 8 -61 16 -79 17v12h528v-151h-17c-10 43 -57 123 -99 129c-24 3 -51 4 -83 4h-138v-300h97c56 0 71 21 83 33c15 15 25 65 28 91h17v-275h-17c-2 29 -16 83 -28 96
c-13 14 -29 33 -83 33h-97v-231c0 -82 19 -91 120 -91c71 0 154 -3 178 22c30 31 68 114 78 144h15zM428 897c0 -25 -12 -34 -37 -54c-30 -24 -66 -50 -146 -114l-10 9c51 74 77 115 99 152c18 31 33 43 59 43c23 0 35 -17 35 -36z" />
    <glyph glyph-name="Ntilde" unicode="&#xd1;" horiz-adv-x="770" 
d="M778 671c-18 0 -77 -17 -89 -24c-29 -17 -35 -71 -35 -133v-523h-25l-459 581v-391c0 -76 14 -119 36 -137c17 -14 89 -31 107 -32v-12h-292v12c19 2 78 19 90 26c23 13 36 53 36 138v374c0 35 -11 62 -32 79c-24 20 -79 39 -111 43v11h177l450 -569v394
c0 70 -12 121 -34 134c-19 12 -82 28 -107 29v12h288v-12zM569 892c-15 -57 -56 -118 -123 -118c-82 0 -100 55 -152 55c-42 0 -57 -28 -83 -73l-12 5c17 49 56 118 120 118c76 0 98 -54 147 -54c61 0 72 29 92 71z" />
    <glyph glyph-name="Odieresis" unicode="&#xd6;" horiz-adv-x="760" 
d="M720 346c0 -102 -27 -190 -100 -263c-63 -63 -143 -98 -244 -98c-89 0 -169 34 -233 96s-103 145 -103 253c0 116 39 203 100 265c64 65 151 99 240 99c90 0 171 -28 249 -105c57 -57 91 -153 91 -247zM626 343c0 216 -103 335 -246 335c-144 0 -246 -119 -246 -346
c0 -185 86 -327 246 -327c161 0 246 140 246 338zM536 835c0 -29 -22 -53 -51 -53c-28 0 -50 22 -50 49c0 28 22 51 50 51c30 0 51 -22 51 -47zM325 835c0 -29 -22 -53 -52 -53c-27 0 -50 22 -50 49c0 28 23 51 50 51c30 0 52 -22 52 -47z" />
    <glyph glyph-name="Udieresis" unicode="&#xdc;" horiz-adv-x="771" 
d="M764 671c-18 0 -72 -12 -91 -23c-29 -17 -33 -78 -33 -132v-330c0 -112 -92 -202 -253 -202c-160 0 -247 88 -247 175v445c0 22 -8 38 -31 50c-18 9 -54 16 -70 17v12h286v-12c-18 -1 -54 -7 -72 -13c-25 -8 -31 -27 -31 -49v-425c0 -93 60 -164 187 -164
c139 0 208 73 208 165v325c0 69 -11 121 -34 134c-28 16 -84 26 -109 27v12h290v-12zM541 835c0 -29 -22 -53 -51 -53c-28 0 -50 22 -50 49c0 28 22 51 50 51c30 0 51 -22 51 -47zM330 835c0 -29 -22 -53 -52 -53c-27 0 -50 22 -50 49c0 28 23 51 50 51c30 0 52 -22 52 -47z
" />
    <glyph glyph-name="aacute" unicode="&#xe1;" horiz-adv-x="463" 
d="M470 115c-8 -92 -37 -123 -86 -123c-41 0 -69 22 -82 67h-3c-37 -45 -96 -69 -148 -69c-69 0 -114 37 -114 101c0 82 48 108 98 127c57 22 123 40 166 64v68c0 53 -26 100 -96 100c-38 0 -58 -21 -66 -33c1 -18 7 -51 7 -68c0 -21 -20 -38 -49 -38c-25 0 -34 24 -34 47
c0 59 76 106 150 106c93 0 160 -21 160 -148c0 -87 -5 -191 -5 -224c0 -34 11 -60 43 -60c29 0 41 28 46 83h13zM302 258c-112 -32 -189 -64 -189 -155c0 -55 25 -85 74 -85c50 0 84 28 111 61zM335 695c0 -25 -12 -34 -37 -54c-30 -24 -66 -50 -146 -114l-10 9
c51 74 77 115 99 152c18 31 33 43 59 43c23 0 35 -17 35 -36z" />
    <glyph glyph-name="agrave" unicode="&#xe0;" horiz-adv-x="463" 
d="M470 115c-8 -92 -37 -123 -86 -123c-41 0 -69 22 -82 67h-3c-37 -45 -96 -69 -148 -69c-69 0 -114 37 -114 101c0 82 48 108 98 127c57 22 123 40 166 64v68c0 53 -26 100 -96 100c-38 0 -58 -21 -66 -33c1 -18 7 -51 7 -68c0 -21 -20 -38 -49 -38c-25 0 -34 24 -34 47
c0 59 76 106 150 106c93 0 160 -21 160 -148c0 -87 -5 -191 -5 -224c0 -34 11 -60 43 -60c29 0 41 28 46 83h13zM302 258c-112 -32 -189 -64 -189 -155c0 -55 25 -85 74 -85c50 0 84 28 111 61zM126 695c0 19 12 36 35 36c26 0 41 -12 59 -43c22 -37 48 -78 99 -152l-10 -9
c-80 64 -116 90 -146 114c-25 20 -37 29 -37 54z" />
    <glyph glyph-name="acircumflex" unicode="&#xe2;" horiz-adv-x="463" 
d="M470 115c-8 -92 -37 -123 -86 -123c-41 0 -69 22 -82 67h-3c-37 -45 -96 -69 -148 -69c-69 0 -114 37 -114 101c0 82 48 108 98 127c57 22 123 40 166 64v68c0 53 -26 100 -96 100c-38 0 -58 -21 -66 -33c1 -18 7 -51 7 -68c0 -21 -20 -38 -49 -38c-25 0 -34 24 -34 47
c0 59 76 106 150 106c93 0 160 -21 160 -148c0 -87 -5 -191 -5 -224c0 -34 11 -60 43 -60c29 0 41 28 46 83h13zM302 258c-112 -32 -189 -64 -189 -155c0 -55 25 -85 74 -85c50 0 84 28 111 61zM382 536l-10 -9l-140 139l-143 -139l-10 9c53 77 88 138 112 175
c13 19 18 22 41 22c22 0 28 -4 39 -20c25 -36 58 -99 111 -177z" />
    <glyph glyph-name="adieresis" unicode="&#xe4;" horiz-adv-x="463" 
d="M470 115c-8 -92 -37 -123 -86 -123c-41 0 -69 22 -82 67h-3c-37 -45 -96 -69 -148 -69c-69 0 -114 37 -114 101c0 82 48 108 98 127c57 22 123 40 166 64v68c0 53 -26 100 -96 100c-38 0 -58 -21 -66 -33c1 -18 7 -51 7 -68c0 -21 -20 -38 -49 -38c-25 0 -34 24 -34 47
c0 59 76 106 150 106c93 0 160 -21 160 -148c0 -87 -5 -191 -5 -224c0 -34 11 -60 43 -60c29 0 41 28 46 83h13zM302 258c-112 -32 -189 -64 -189 -155c0 -55 25 -85 74 -85c50 0 84 28 111 61zM387 643c0 -29 -22 -53 -51 -53c-28 0 -50 22 -50 49c0 28 22 51 50 51
c30 0 51 -22 51 -47zM176 643c0 -29 -22 -53 -52 -53c-27 0 -50 22 -50 49c0 28 23 51 50 51c30 0 52 -22 52 -47z" />
    <glyph glyph-name="atilde" unicode="&#xe3;" horiz-adv-x="463" 
d="M470 115c-8 -92 -37 -123 -86 -123c-41 0 -69 22 -82 67h-3c-37 -45 -96 -69 -148 -69c-69 0 -114 37 -114 101c0 82 48 108 98 127c57 22 123 40 166 64v68c0 53 -26 100 -96 100c-38 0 -58 -21 -66 -33c1 -18 7 -51 7 -68c0 -21 -20 -38 -49 -38c-25 0 -34 24 -34 47
c0 59 76 106 150 106c93 0 160 -21 160 -148c0 -87 -5 -191 -5 -224c0 -34 11 -60 43 -60c29 0 41 28 46 83h13zM302 258c-112 -32 -189 -64 -189 -155c0 -55 25 -85 74 -85c50 0 84 28 111 61zM415 690c-15 -57 -56 -118 -123 -118c-82 0 -100 55 -152 55
c-42 0 -57 -28 -83 -73l-12 5c17 49 56 118 120 118c76 0 98 -54 147 -54c61 0 72 29 92 71z" />
    <glyph glyph-name="aring" unicode="&#xe5;" horiz-adv-x="463" 
d="M470 115c-8 -92 -37 -123 -86 -123c-41 0 -69 22 -82 67h-3c-37 -45 -96 -69 -148 -69c-69 0 -114 37 -114 101c0 82 48 108 98 127c57 22 123 40 166 64v68c0 53 -26 100 -96 100c-38 0 -58 -21 -66 -33c1 -18 7 -51 7 -68c0 -21 -20 -38 -49 -38c-25 0 -34 24 -34 47
c0 59 76 106 150 106c93 0 160 -21 160 -148c0 -87 -5 -191 -5 -224c0 -34 11 -60 43 -60c29 0 41 28 46 83h13zM302 258c-112 -32 -189 -64 -189 -155c0 -55 25 -85 74 -85c50 0 84 28 111 61zM340 629c0 -57 -41 -98 -109 -98c-69 0 -109 39 -109 98c0 58 47 98 109 98
c65 0 109 -39 109 -98zM294 629c0 43 -17 83 -63 83c-44 0 -63 -37 -63 -83c0 -44 17 -83 63 -83s63 38 63 83z" />
    <glyph glyph-name="ccedilla" unicode="&#xe7;" horiz-adv-x="421" 
d="M339 -134c0 -82 -95 -94 -198 -94v19c62 0 136 -3 136 57c0 38 -46 42 -85 42v104c-104 19 -160 111 -160 234c0 122 81 236 212 236c97 0 149 -57 149 -116c0 -32 -16 -51 -45 -51c-16 0 -47 9 -47 45c0 44 12 43 12 62c-6 32 -33 47 -70 47c-69 0 -133 -64 -133 -215
c0 -117 52 -216 143 -216c63 0 99 21 144 91l11 -7c-38 -77 -99 -114 -174 -114c-7 0 -14 0 -20 1v-49c56 0 125 -16 125 -76z" />
    <glyph glyph-name="eacute" unicode="&#xe9;" horiz-adv-x="435" 
d="M418 107c-34 -71 -96 -117 -176 -117c-144 0 -210 110 -210 240c0 118 73 234 199 234c130 0 178 -87 178 -201v-7h-300v-10c0 -128 43 -226 151 -226c79 0 108 33 146 94zM334 276c0 92 -17 174 -101 174c-70 0 -121 -65 -124 -176zM321 695c0 -25 -12 -34 -37 -54
c-30 -24 -66 -50 -146 -114l-10 9c51 74 77 115 99 152c18 31 33 43 59 43c23 0 35 -17 35 -36z" />
    <glyph glyph-name="egrave" unicode="&#xe8;" horiz-adv-x="435" 
d="M418 107c-34 -71 -96 -117 -176 -117c-144 0 -210 110 -210 240c0 118 73 234 199 234c130 0 178 -87 178 -201v-7h-300v-10c0 -128 43 -226 151 -226c79 0 108 33 146 94zM334 276c0 92 -17 174 -101 174c-70 0 -121 -65 -124 -176zM112 695c0 19 12 36 35 36
c26 0 41 -12 59 -43c22 -37 48 -78 99 -152l-10 -9c-80 64 -116 90 -146 114c-25 20 -37 29 -37 54z" />
    <glyph glyph-name="ecircumflex" unicode="&#xea;" horiz-adv-x="435" 
d="M418 107c-34 -71 -96 -117 -176 -117c-144 0 -210 110 -210 240c0 118 73 234 199 234c130 0 178 -87 178 -201v-7h-300v-10c0 -128 43 -226 151 -226c79 0 108 33 146 94zM334 276c0 92 -17 174 -101 174c-70 0 -121 -65 -124 -176zM368 536l-10 -9l-140 139l-143 -139
l-10 9c53 77 88 138 112 175c13 19 18 22 41 22c22 0 28 -4 39 -20c25 -36 58 -99 111 -177z" />
    <glyph glyph-name="edieresis" unicode="&#xeb;" horiz-adv-x="435" 
d="M418 107c-34 -71 -96 -117 -176 -117c-144 0 -210 110 -210 240c0 118 73 234 199 234c130 0 178 -87 178 -201v-7h-300v-10c0 -128 43 -226 151 -226c79 0 108 33 146 94zM334 276c0 92 -17 174 -101 174c-70 0 -121 -65 -124 -176zM379 643c0 -29 -22 -53 -51 -53
c-28 0 -50 22 -50 49c0 28 22 51 50 51c30 0 51 -22 51 -47zM168 643c0 -29 -22 -53 -52 -53c-27 0 -50 22 -50 49c0 28 23 51 50 51c30 0 52 -22 52 -47z" />
    <glyph glyph-name="iacute" unicode="&#xed;" horiz-adv-x="270" 
d="M247 0h-211v10c18 1 30 1 44 6c19 6 27 26 27 46v307c0 21 -12 39 -28 50c-12 8 -40 18 -58 19v8l148 11l7 -7v-382c0 -22 9 -38 27 -47c17 -6 32 -10 44 -11v-10zM239 695c0 -25 -12 -34 -37 -54c-30 -24 -66 -50 -146 -114l-10 9c51 74 77 115 99 152
c18 31 33 43 59 43c23 0 35 -17 35 -36z" />
    <glyph glyph-name="igrave" unicode="&#xec;" horiz-adv-x="270" 
d="M247 0h-211v10c18 1 30 1 44 6c19 6 27 26 27 46v307c0 21 -12 39 -28 50c-12 8 -40 18 -58 19v8l148 11l7 -7v-382c0 -22 9 -38 27 -47c17 -6 32 -10 44 -11v-10zM30 695c0 19 12 36 35 36c26 0 41 -12 59 -43c22 -37 48 -78 99 -152l-10 -9c-80 64 -116 90 -146 114
c-25 20 -37 29 -37 54z" />
    <glyph glyph-name="icircumflex" unicode="&#xee;" horiz-adv-x="270" 
d="M263 534l-11 -7l-117 140l-118 -140l-11 7c36 71 67 133 89 177c10 21 18 22 41 22c22 0 31 -3 39 -20c20 -41 49 -100 88 -179zM247 0h-211v10c18 1 30 1 44 6c19 6 27 26 27 46v307c0 21 -12 39 -28 50c-12 8 -40 18 -58 19v8l148 11l7 -7v-382c0 -22 9 -38 27 -47
c17 -6 32 -10 44 -11v-10z" />
    <glyph glyph-name="idieresis" unicode="&#xef;" horiz-adv-x="270" 
d="M278 649c0 -29 -22 -53 -51 -53c-28 0 -50 22 -50 49c0 28 22 51 50 51c30 0 51 -22 51 -47zM93 649c0 -29 -22 -53 -52 -53c-27 0 -50 22 -50 49c0 28 23 51 50 51c30 0 52 -22 52 -47zM247 0h-211v10c18 1 30 1 44 6c19 6 27 26 27 46v307c0 21 -12 39 -28 50
c-12 8 -40 18 -58 19v8l148 11l7 -7v-382c0 -22 9 -38 27 -47c17 -6 32 -10 44 -11v-10z" />
    <glyph glyph-name="ntilde" unicode="&#xf1;" horiz-adv-x="568" 
d="M545 0h-223v12c20 1 36 2 51 6c21 6 31 24 31 46v256c0 70 -46 109 -93 109c-79 0 -124 -50 -136 -73v-287c0 -22 11 -38 30 -46c16 -7 33 -10 51 -11v-12h-222v12c18 1 30 1 44 6c19 6 28 24 28 46v303c0 21 -11 42 -27 53c-12 8 -31 15 -49 16v10l138 11l7 -7v-68h2
c38 37 76 82 162 82c93 0 135 -63 135 -158v-238c0 -22 9 -38 27 -46c14 -6 26 -9 44 -10v-12zM468 690c-15 -57 -56 -118 -123 -118c-82 0 -100 55 -152 55c-42 0 -57 -28 -83 -73l-12 5c17 49 56 118 120 118c76 0 98 -54 147 -54c61 0 72 29 92 71z" />
    <glyph glyph-name="oacute" unicode="&#xf3;" horiz-adv-x="502" 
d="M471 231c0 -131 -83 -244 -226 -244c-112 0 -214 91 -214 236c0 142 89 241 223 241c132 0 217 -102 217 -233zM394 230c0 108 -37 220 -142 220c-113 0 -144 -120 -144 -218c0 -122 42 -231 144 -231c96 0 142 106 142 229zM355 695c0 -25 -12 -34 -37 -54
c-30 -24 -66 -50 -146 -114l-10 9c51 74 77 115 99 152c18 31 33 43 59 43c23 0 35 -17 35 -36z" />
    <glyph glyph-name="ograve" unicode="&#xf2;" horiz-adv-x="502" 
d="M471 231c0 -131 -83 -244 -226 -244c-112 0 -214 91 -214 236c0 142 89 241 223 241c132 0 217 -102 217 -233zM394 230c0 108 -37 220 -142 220c-113 0 -144 -120 -144 -218c0 -122 42 -231 144 -231c96 0 142 106 142 229zM146 695c0 19 12 36 35 36
c26 0 41 -12 59 -43c22 -37 48 -78 99 -152l-10 -9c-80 64 -116 90 -146 114c-25 20 -37 29 -37 54z" />
    <glyph glyph-name="ocircumflex" unicode="&#xf4;" horiz-adv-x="502" 
d="M471 231c0 -131 -83 -244 -226 -244c-112 0 -214 91 -214 236c0 142 89 241 223 241c132 0 217 -102 217 -233zM394 230c0 108 -37 220 -142 220c-113 0 -144 -120 -144 -218c0 -122 42 -231 144 -231c96 0 142 106 142 229zM402 536l-10 -9l-140 139l-143 -139l-10 9
c53 77 88 138 112 175c13 19 18 22 41 22c22 0 28 -4 39 -20c25 -36 58 -99 111 -177z" />
    <glyph glyph-name="odieresis" unicode="&#xf6;" horiz-adv-x="502" 
d="M471 231c0 -131 -83 -244 -226 -244c-112 0 -214 91 -214 236c0 142 89 241 223 241c132 0 217 -102 217 -233zM394 230c0 108 -37 220 -142 220c-113 0 -144 -120 -144 -218c0 -122 42 -231 144 -231c96 0 142 106 142 229zM407 643c0 -29 -22 -53 -51 -53
c-28 0 -50 22 -50 49c0 28 22 51 50 51c30 0 51 -22 51 -47zM196 643c0 -29 -22 -53 -52 -53c-27 0 -50 22 -50 49c0 28 23 51 50 51c30 0 52 -22 52 -47z" />
    <glyph glyph-name="otilde" unicode="&#xf5;" horiz-adv-x="502" 
d="M471 231c0 -131 -83 -244 -226 -244c-112 0 -214 91 -214 236c0 142 89 241 223 241c132 0 217 -102 217 -233zM394 230c0 108 -37 220 -142 220c-113 0 -144 -120 -144 -218c0 -122 42 -231 144 -231c96 0 142 106 142 229zM435 690c-15 -57 -56 -118 -123 -118
c-82 0 -100 55 -152 55c-42 0 -57 -28 -83 -73l-12 5c17 49 56 118 120 118c76 0 98 -54 147 -54c61 0 72 29 92 71z" />
    <glyph glyph-name="uacute" unicode="&#xfa;" horiz-adv-x="550" 
d="M526 8l-135 -9l-7 7v61h-3c-38 -38 -72 -78 -158 -78c-93 0 -130 69 -130 163v217c0 21 -10 39 -26 50c-12 8 -31 14 -49 15v11l138 12l8 -7v-324c0 -70 39 -107 87 -107c80 0 118 50 132 71v282c0 21 -10 39 -27 50c-12 8 -41 11 -69 12v11l159 12l7 -7v-370
c0 -21 10 -37 26 -48c12 -8 29 -11 47 -12v-12zM379 695c0 -25 -12 -34 -37 -54c-30 -24 -66 -50 -146 -114l-10 9c51 74 77 115 99 152c18 31 33 43 59 43c23 0 35 -17 35 -36z" />
    <glyph glyph-name="ugrave" unicode="&#xf9;" horiz-adv-x="550" 
d="M526 8l-135 -9l-7 7v61h-3c-38 -38 -72 -78 -158 -78c-93 0 -130 69 -130 163v217c0 21 -10 39 -26 50c-12 8 -31 14 -49 15v11l138 12l8 -7v-324c0 -70 39 -107 87 -107c80 0 118 50 132 71v282c0 21 -10 39 -27 50c-12 8 -41 11 -69 12v11l159 12l7 -7v-370
c0 -21 10 -37 26 -48c12 -8 29 -11 47 -12v-12zM170 695c0 19 12 36 35 36c26 0 41 -12 59 -43c22 -37 48 -78 99 -152l-10 -9c-80 64 -116 90 -146 114c-25 20 -37 29 -37 54z" />
    <glyph glyph-name="ucircumflex" unicode="&#xfb;" horiz-adv-x="550" 
d="M526 8l-135 -9l-7 7v61h-3c-38 -38 -72 -78 -158 -78c-93 0 -130 69 -130 163v217c0 21 -10 39 -26 50c-12 8 -31 14 -49 15v11l138 12l8 -7v-324c0 -70 39 -107 87 -107c80 0 118 50 132 71v282c0 21 -10 39 -27 50c-12 8 -41 11 -69 12v11l159 12l7 -7v-370
c0 -21 10 -37 26 -48c12 -8 29 -11 47 -12v-12zM426 536l-10 -9l-140 139l-143 -139l-10 9c53 77 88 138 112 175c13 19 18 22 41 22c22 0 28 -4 39 -20c25 -36 58 -99 111 -177z" />
    <glyph glyph-name="udieresis" unicode="&#xfc;" horiz-adv-x="550" 
d="M526 8l-135 -9l-7 7v61h-3c-38 -38 -72 -78 -158 -78c-93 0 -130 69 -130 163v217c0 21 -10 39 -26 50c-12 8 -31 14 -49 15v11l138 12l8 -7v-324c0 -70 39 -107 87 -107c80 0 118 50 132 71v282c0 21 -10 39 -27 50c-12 8 -41 11 -69 12v11l159 12l7 -7v-370
c0 -21 10 -37 26 -48c12 -8 29 -11 47 -12v-12zM427 643c0 -29 -22 -53 -51 -53c-28 0 -50 22 -50 49c0 28 22 51 50 51c30 0 51 -22 51 -47zM216 643c0 -29 -22 -53 -52 -53c-27 0 -50 22 -50 49c0 28 23 51 50 51c30 0 52 -22 52 -47z" />
    <glyph glyph-name="dagger" unicode="&#x2020;" horiz-adv-x="408" 
d="M363 510c0 -25 -17 -41 -43 -41c-30 0 -53 46 -76 46c-13 0 -18 -10 -19 -33c-6 -109 -16 -269 -18 -382h-13c-3 112 -12 273 -19 382c-1 23 -6 33 -19 33c-23 0 -46 -46 -76 -46c-26 0 -42 16 -42 41c0 15 9 27 26 27c15 0 25 -12 29 -30c15 2 41 21 60 21
c16 0 32 -3 40 -11c-3 48 -25 111 -25 140c0 20 8 41 32 41s32 -21 32 -41c0 -29 -22 -93 -26 -140c10 8 25 11 41 11c19 0 45 -19 60 -21c4 18 18 30 34 30c17 0 22 -12 22 -27z" />
    <glyph glyph-name="degree" unicode="&#xb0;" horiz-adv-x="406" 
d="M348 560c0 -82 -71 -146 -147 -146c-77 0 -143 50 -143 145c0 88 72 151 143 151c76 0 147 -47 147 -150zM294 558c0 77 -31 135 -92 135s-91 -62 -91 -130c0 -71 30 -132 93 -132c50 0 90 54 90 127z" />
    <glyph glyph-name="cent" unicode="&#xa2;" horiz-adv-x="462" 
d="M198 72l-44 -185l-12 3l44 186c-85 30 -132 116 -132 227c0 122 81 236 212 236c10 0 19 -1 28 -2l31 133l13 -3l-31 -132c67 -14 103 -62 103 -112c0 -32 -16 -51 -45 -51c-16 0 -47 9 -47 45c0 44 12 43 12 62c-4 19 -13 32 -27 39l-95 -402c19 -13 42 -21 67 -21
c63 0 99 21 144 91l11 -7c-38 -77 -99 -114 -174 -114c-21 0 -40 3 -58 7zM197 125l94 398c-8 2 -17 3 -26 3c-69 0 -134 -64 -134 -215c0 -78 24 -148 66 -186z" />
    <glyph glyph-name="sterling" unicode="&#xa3;" horiz-adv-x="789" 
d="M739 528c0 -96 -65 -160 -150 -160c-62 0 -111 53 -111 125c0 26 3 49 17 78l10 -2c-11 -26 -16 -54 -16 -72c0 -57 42 -101 100 -101c69 0 101 50 101 127c0 90 -40 159 -133 159c-101 0 -179 -72 -179 -295c0 -31 -1 -56 -4 -82h160v-13h-161c-3 -29 -11 -72 -15 -91
h168v-12h-172c-13 -48 -36 -108 -54 -138c81 -27 153 -79 237 -79c99 0 120 92 131 159l10 -1c-14 -109 -65 -210 -231 -210c-59 0 -124 39 -187 70c-39 -47 -112 -88 -179 -88c-81 0 -117 40 -117 88c0 60 85 90 174 90c34 0 101 -10 138 -18c3 15 5 35 5 48
c0 22 -2 58 -3 79h-166v12h166l-1 91h-159v13h159c8 238 119 393 274 393c130 0 188 -98 188 -170zM244 -3c-75 36 -122 46 -180 46c-52 0 -80 -32 -80 -64s38 -61 96 -61c63 0 122 35 164 79z" />
    <glyph glyph-name="section" unicode="&#xa7;" horiz-adv-x="552" 
d="M482 177c0 -83 -69 -113 -133 -123c24 -36 44 -79 44 -132c0 -78 -72 -149 -151 -149c-76 0 -117 64 -117 101c0 44 22 68 53 68c22 0 44 -15 44 -47c0 -36 -26 -31 -26 -57c0 -28 18 -50 53 -50c59 0 88 49 88 120c0 48 -15 73 -54 124s-76 82 -131 148
c-49 58 -76 97 -76 159c0 81 69 121 130 129c-22 33 -40 72 -40 122c0 78 73 148 153 148c73 0 110 -63 110 -100c0 -44 -22 -68 -53 -68c-22 0 -44 15 -44 47c0 38 42 34 42 57c0 27 -18 48 -65 48c-49 0 -91 -44 -91 -111c0 -49 19 -73 57 -124s72 -83 128 -149
c51 -60 79 -99 79 -161zM430 155c0 33 -22 69 -47 99c-68 82 -130 150 -169 201c-43 -8 -90 -30 -90 -94c0 -28 24 -69 49 -99c66 -80 128 -139 167 -195c54 14 90 36 90 88z" />
    <glyph glyph-name="bullet" unicode="&#x2022;" horiz-adv-x="400" 
d="M329 325c0 -74 -66 -134 -129 -134s-129 60 -129 134s66 136 129 136s129 -62 129 -136z" />
    <glyph glyph-name="paragraph" unicode="&#xb6;" horiz-adv-x="601" 
d="M590 669h-142v-794h-14v794h-110v-794h-14v475h-30c-178 0 -221 84 -221 162c0 73 47 171 186 171h345v-14z" />
    <glyph glyph-name="germandbls" unicode="&#xdf;" horiz-adv-x="576" 
d="M546 139c0 -80 -60 -153 -145 -153s-130 48 -130 103c0 36 14 59 45 59c25 0 35 -20 35 -44c0 -25 -17 -32 -17 -51s23 -49 73 -49c62 0 94 43 94 91c0 43 -13 68 -98 134c-52 40 -96 83 -96 137c0 89 105 100 105 225c0 95 -45 138 -111 138c-83 0 -115 -65 -120 -218
c0 -15 -1 -34 -1 -51v-460h-140v12c18 1 30 1 44 6c19 6 27 24 27 46v359h-103v26h103v32c0 83 19 156 65 205c41 44 87 61 138 61c81 0 149 -48 149 -130c0 -128 -111 -146 -111 -195c0 -28 5 -51 94 -123c71 -57 100 -86 100 -160z" />
    <glyph glyph-name="registered" unicode="&#xae;" horiz-adv-x="468" 
d="M413 521c0 -103 -81 -182 -179 -182s-179 79 -179 182s81 182 179 182s179 -79 179 -182zM400 521c0 97 -74 171 -166 171s-166 -74 -166 -171s74 -171 166 -171s166 74 166 171zM344 465c0 -29 -7 -42 -34 -42c-20 0 -36 17 -40 51c-3 23 -12 53 -47 53h-20v-76
c0 -7 2 -12 9 -15c4 -2 14 -3 20 -3v-7h-88v7c5 0 18 2 20 3c6 3 9 8 9 15v155c0 7 -2 13 -9 15c-6 2 -15 4 -20 4v6h102c30 0 63 -13 63 -46s-36 -44 -58 -50v-3c14 -2 40 -12 46 -34c4 -15 8 -35 12 -49c3 -10 10 -13 15 -13c10 0 16 8 16 29h4zM274 579
c0 34 -21 45 -44 45h-27v-89h19c27 0 52 10 52 44z" />
    <glyph glyph-name="copyright" unicode="&#xa9;" horiz-adv-x="939" 
d="M899 251c0 -238 -200 -432 -429 -432c-230 0 -430 194 -430 432c0 236 199 430 430 430c229 0 429 -194 429 -430zM873 251c0 223 -187 406 -403 406c-218 0 -404 -183 -404 -406c0 -225 187 -408 404 -408c216 0 403 183 403 408zM663 158c-31 -69 -89 -145 -187 -145
c-137 0 -232 90 -232 234c0 138 105 243 246 243c35 0 92 -14 116 -31l22 38h14l4 -181h-10c-25 74 -66 156 -165 156c-69 0 -142 -68 -142 -220c0 -124 76 -207 167 -207c83 0 127 59 156 118z" />
    <glyph glyph-name="trademark" unicode="&#x2122;" horiz-adv-x="629" 
d="M609 433h-127v8c6 1 32 3 37 6c7 4 10 9 10 18v179h-6l-78 -208h-4c-5 15 -12 34 -19 52l-61 151h-6v-137c0 -28 5 -43 12 -49s33 -11 39 -12v-8h-113v8c6 1 28 3 37 9c8 5 12 22 12 49v134c0 16 -3 25 -11 30c-10 6 -26 11 -35 11v9h85l76 -185l55 152c4 11 7 24 8 33
h88v-9c-6 0 -24 -4 -31 -6c-7 -3 -10 -9 -10 -17v-186c0 -9 3 -14 10 -17c5 -3 25 -6 32 -7v-8zM257 609h-4c-5 15 -21 59 -37 61c-9 1 -19 1 -29 1h-22v-207c0 -8 4 -14 11 -17c5 -1 25 -5 32 -6v-8h-127v8c7 1 27 2 33 5c8 3 12 8 12 16v209h-15c-8 0 -28 0 -37 -1
c-16 -2 -34 -46 -38 -61h-4v74h225v-74z" />
    <glyph glyph-name="acute" unicode="&#xb4;" 
d="M354 695c0 -25 -12 -34 -37 -54c-30 -24 -66 -50 -146 -114l-10 9c51 74 77 115 99 152c18 31 33 43 59 43c23 0 35 -17 35 -36z" />
    <glyph glyph-name="dieresis" unicode="&#xa8;" 
d="M406 643c0 -29 -22 -53 -51 -53c-28 0 -50 22 -50 49c0 28 22 51 50 51c30 0 51 -22 51 -47zM195 643c0 -29 -22 -53 -52 -53c-27 0 -50 22 -50 49c0 28 23 51 50 51c30 0 52 -22 52 -47z" />
    <glyph glyph-name="notequal" unicode="&#x2260;" horiz-adv-x="584" 
d="M598 747c65 0 88 -43 88 -80c0 -16 -16 -42 -44 -42c-27 0 -45 19 -45 46c0 9 3 27 6 44c-5 8 -17 14 -28 14c-65 0 -100 -56 -106 -214c-1 -15 -1 -49 -1 -66h126v-26h-126v-354c0 -22 9 -39 27 -46c15 -6 46 -10 64 -11v-12h-227v12c18 1 25 2 39 7c19 6 27 23 27 45
v359h-221v-354c0 -22 9 -39 27 -46c15 -6 45 -10 63 -11v-12h-231v12c18 1 30 1 44 6c19 6 27 24 27 46v359h-103v26h103v27c0 83 25 147 72 200c28 32 92 64 147 64c79 0 114 -32 128 -66c34 52 103 73 144 73zM413 591c-26 0 -41 15 -41 38c0 33 18 42 21 50
c-2 15 -19 43 -74 43c-58 0 -142 -59 -142 -216v-57h221v30c0 38 6 80 15 112z" />
    <glyph glyph-name="AE" unicode="&#xc6;" horiz-adv-x="962" 
d="M239 278c-46 -81 -81 -144 -87 -156c-8 -16 -19 -45 -19 -59c0 -29 65 -49 113 -51v-12h-272v12c19 1 49 8 68 19c23 13 49 44 70 78c40 64 226 387 313 545c-22 7 -76 16 -90 17v12h550v-151h-17c-10 43 -57 123 -99 129c-24 3 -51 4 -83 4h-138v-300h97
c56 0 71 21 83 33c15 15 25 65 28 91h17v-275h-17c-2 29 -16 83 -28 96c-13 14 -29 33 -83 33h-97v-231c0 -82 19 -91 120 -91c71 0 154 -3 178 22c30 31 68 114 78 144h15l-13 -187h-569v12c18 1 64 5 79 11c24 9 31 27 31 49v206h-228zM467 300v354h-17
s-109 -194 -199 -354h216z" />
    <glyph glyph-name="Oslash" unicode="&#xd8;" horiz-adv-x="760" 
d="M141 83c-63 61 -101 144 -101 251s27 193 92 259c69 70 155 105 248 105c82 0 156 -23 228 -86l93 106l19 -15l-94 -107l3 -3c56 -59 91 -153 91 -247c0 -102 -27 -190 -100 -263c-63 -63 -143 -98 -244 -98c-82 0 -157 29 -218 82c-38 -43 -94 -106 -94 -106l-18 14z
M180 127l391 444c-38 64 -101 107 -191 107c-151 0 -246 -126 -246 -339c0 -80 15 -154 46 -212zM584 549c0 0 -391 -442 -392 -443c41 -62 103 -101 188 -101c166 0 246 146 246 338c0 73 -13 147 -42 206z" />
    <glyph glyph-name="infinity" unicode="&#x221e;" horiz-adv-x="848" 
d="M616 747c95 0 144 -49 144 -106c0 -21 -12 -57 -48 -57c-20 0 -49 11 -49 45c0 33 12 45 16 53c-1 15 -8 47 -69 47c-70 0 -141 -64 -141 -218v-62h176l102 8l7 -7v-382c0 -22 9 -39 27 -46c15 -6 26 -11 44 -12v-10h-212v10c18 1 28 1 42 6c19 6 29 23 29 45v312
c0 20 -5 36 -14 50h-201v-354c0 -22 9 -39 27 -46c15 -6 45 -10 63 -11v-12h-231v12c18 1 30 2 44 7c19 6 27 23 27 45v359h-222v-354c0 -22 9 -38 27 -45c15 -6 47 -11 65 -12v-12h-233v12c18 1 30 2 44 7c19 6 27 23 27 45v359h-103v26h103v27c0 83 25 147 72 200
c28 32 92 64 147 64c79 0 116 -43 130 -77c38 49 97 84 160 84zM417 591c-26 0 -45 15 -45 38c0 33 18 42 21 50c-2 15 -19 43 -74 43c-58 0 -143 -59 -143 -216v-57h223v30c0 38 6 82 18 112z" />
    <glyph glyph-name="plusminus" unicode="&#xb1;" horiz-adv-x="847" 
d="M324 0v12c18 1 30 1 44 6c19 6 27 24 27 46v359h-218v-354c0 -22 8 -39 26 -46c15 -6 46 -10 64 -11v-12h-231v12c18 1 30 1 44 6c19 6 27 24 27 46v359h-103v26h103v26c0 84 26 151 72 200c37 40 92 65 146 65c81 0 111 -36 125 -66c4 6 6 8 12 15c37 40 88 58 147 58
c29 0 60 -8 82 -19l54 18l7 -7v-671c0 -22 9 -39 27 -47c15 -7 26 -10 44 -11v-10h-212v10c18 1 30 1 44 6c19 6 27 24 27 46v619c-17 22 -53 48 -91 48c-79 0 -119 -56 -125 -214c-1 -15 -1 -49 -1 -66h125v-26h-125v-354c0 -22 8 -39 26 -46c15 -6 46 -10 64 -11v-12h-231
zM409 591c-25 1 -41 12 -41 38c0 35 17 39 21 51c-6 22 -26 42 -71 42c-65 0 -135 -56 -141 -214c-1 -15 0 -42 0 -59h218v33c0 39 4 76 14 109z" />
    <glyph glyph-name="lessequal" unicode="&#x2264;" horiz-adv-x="703" 
d="M723 0h-194c-15 73 -30 130 -57 198c-34 87 -99 141 -169 141h-69v-266c0 -22 7 -43 31 -52c13 -5 57 -8 75 -9v-12h-287v12c18 1 56 5 69 10c24 9 31 29 31 51v535c0 22 -6 42 -31 50c-18 6 -54 13 -72 14v11h341c88 0 186 -53 186 -156c0 -109 -100 -151 -190 -172v-7
c64 -15 139 -52 171 -132c16 -40 39 -114 45 -132c16 -48 41 -61 60 -65c20 -4 42 -6 60 -7v-12zM478 517c0 115 -63 149 -139 149h-105v-305h82c87 0 162 42 162 156z" />
    <glyph glyph-name="greaterequal" unicode="&#x2265;" horiz-adv-x="365" 
d="M366 412c0 -29 -16 -54 -46 -54c-26 0 -45 12 -45 42c0 5 2 17 7 28c-53 0 -93 -47 -107 -72v-287c0 -22 9 -39 27 -46c17 -7 45 -10 64 -11v-12h-232v12c18 1 30 1 44 6c19 6 28 24 28 46v303c0 21 -11 42 -27 53c-12 8 -31 15 -49 16v10l138 11l7 -7v-69h2
c44 57 96 81 135 81c25 0 54 -21 54 -50z" />
    <glyph glyph-name="yen" unicode="&#xa5;" horiz-adv-x="561" 
d="M566 595c-10 -1 -32 -10 -42 -16c-23 -13 -28 -22 -50 -50c-29 -37 -96 -146 -138 -219c-8 -13 -14 -31 -19 -45h155v-13h-160c-2 -11 -3 -31 -3 -41v-41h163v-13h-163v-83c0 -21 11 -40 29 -48c15 -7 57 -13 75 -14v-12h-287v12c18 1 65 5 79 10c18 6 31 25 31 47v88
h-157v13h157v82h-157v13h153c-3 12 -9 26 -17 41c-39 78 -78 148 -114 211c-18 31 -36 52 -57 64c-15 9 -33 13 -50 14v12h252v-12c-30 -2 -85 -8 -85 -27c0 -17 61 -128 138 -264c84 128 157 236 157 253c0 26 -63 35 -102 38v12h212v-12z" />
    <glyph glyph-name="mu" unicode="&#xb5;" horiz-adv-x="553" 
d="M566 119c-6 -94 -31 -128 -93 -128c-47 0 -73 22 -89 71h-3c-36 -44 -91 -72 -152 -72c-40 0 -93 24 -117 60h-2v-57c0 -63 34 -117 34 -167c0 -34 -24 -52 -44 -52s-36 20 -36 49c0 35 15 110 19 142s5 63 5 98v389h70v-314c0 -67 46 -111 101 -111c75 0 110 33 122 53
v372h70v-357c0 -21 18 -52 56 -52c35 0 47 38 50 76h9z" />
    <glyph glyph-name="mu" unicode="&#x3bc;" horiz-adv-x="553" 
d="M566 119c-6 -94 -31 -128 -93 -128c-47 0 -73 22 -89 71h-3c-36 -44 -91 -72 -152 -72c-40 0 -93 24 -117 60h-2v-57c0 -63 34 -117 34 -167c0 -34 -24 -52 -44 -52s-36 20 -36 49c0 35 15 110 19 142s5 63 5 98v389h70v-314c0 -67 46 -111 101 -111c75 0 110 33 122 53
v372h70v-357c0 -21 18 -52 56 -52c35 0 47 38 50 76h9z" />
    <glyph glyph-name="partialdiff" unicode="&#x2202;" horiz-adv-x="613" 
d="M595 291c0 -42 -33 -74 -75 -74c-47 0 -61 41 -116 50l-9 -8c-4 -24 -19 -45 -39 -60l-1 -10c16 -21 35 -31 53 -39c30 -14 55 -38 55 -76c0 -40 -35 -76 -78 -76c-40 0 -75 32 -75 75c0 31 18 53 18 94v11l-7 5c-7 -1 -13 -1 -20 -1c-21 0 -40 7 -56 18l-13 -1
c-14 -21 -18 -42 -21 -61c-7 -43 -28 -83 -78 -83c-40 0 -77 33 -77 77c0 43 36 75 83 75c17 0 45 -2 74 13l3 14c-6 13 -10 28 -10 43c0 9 1 17 3 25l-5 13c-9 3 -18 3 -27 3c-28 0 -44 -7 -64 -7c-44 0 -77 35 -77 76s33 77 76 77c36 0 56 -20 67 -42
c11 -23 14 -56 38 -81l15 1c18 19 43 30 69 30l11 7c0 53 -34 73 -34 114c0 44 35 73 76 73c44 0 74 -35 74 -76c0 -64 -58 -59 -88 -116l4 -12c23 -12 41 -32 48 -58l12 -6c55 20 60 70 118 70c40 0 73 -34 73 -77zM368 278c0 38 -28 68 -67 68c-38 0 -67 -30 -67 -68
c0 -39 29 -70 67 -70c39 0 67 31 67 70z" />
    <glyph glyph-name="summation" unicode="&#x2211;" horiz-adv-x="591" 
d="M426 339h-252v12c15 1 59 3 70 6c14 4 24 17 24 32v304c-9 -2 -28 -3 -43 -3c-26 0 -54 18 -79 37l4 9c18 -7 52 -16 77 -16c56 0 82 17 106 29h13c-6 -29 -10 -71 -10 -102v-255c0 -14 8 -27 23 -32c11 -4 54 -8 67 -9v-12zM526 248h-465v21h465v-21zM489 -152h-8
c-1 19 -8 43 -22 54c-11 9 -40 7 -83 7v-84c0 -14 6 -26 20 -31c10 -4 36 -8 50 -9v-12h-204v12c13 1 41 3 50 6c13 4 21 16 21 30v88h-212v27l250 248h25v-247c41 0 70 -1 84 9c12 9 20 33 20 49h9v-147zM313 -63v190l-191 -190h191z" />
    <glyph glyph-name="product" unicode="&#x220f;" horiz-adv-x="577" 
d="M424 339h-252v12c15 1 59 3 70 6c14 4 24 17 24 32v304c-9 -2 -28 -3 -43 -3c-26 0 -54 18 -79 37l4 9c18 -7 52 -16 77 -16c56 0 82 17 106 29h13c-6 -29 -10 -71 -10 -102v-255c0 -14 8 -27 23 -32c11 -4 54 -8 67 -9v-12zM524 248h-465v21h465v-21zM495 -96l-63 -131
h-298v28c88 57 139 84 188 132c61 60 72 99 72 155c0 53 -34 80 -87 80c-71 0 -130 -60 -130 -110c0 -25 13 -49 53 -49c47 0 66 35 79 57l7 -6c-21 -35 -59 -81 -124 -81c-34 0 -61 20 -61 62c0 64 86 141 185 141c90 0 151 -47 151 -105c0 -84 -51 -135 -203 -207
c-13 -6 -47 -31 -61 -42h202c35 0 57 42 82 80z" />
    <glyph glyph-name="pi" unicode="&#x3c0;" horiz-adv-x="939" 
d="M899 251c0 -238 -200 -432 -429 -432c-230 0 -430 194 -430 432c0 236 199 430 430 430c229 0 429 -194 429 -430zM873 251c0 223 -187 406 -403 406c-218 0 -404 -183 -404 -406c0 -225 187 -408 404 -408c216 0 403 183 403 408zM676 370c0 -88 -83 -141 -175 -141h-60
v-153c0 -12 5 -25 21 -30c8 -3 52 -9 73 -10v-11h-252v11c16 1 51 7 60 10c18 6 23 18 23 30v348c0 12 -5 26 -23 31c-19 5 -47 11 -63 12v11h251c85 0 145 -42 145 -108zM589 353c0 47 -26 111 -98 111h-50v-219h37c91 0 111 80 111 108z" />
    <glyph glyph-name="integral" unicode="&#x222b;" horiz-adv-x="613" 
d="M595 291c0 -42 -33 -74 -75 -74c-47 0 -61 41 -116 50l-9 -8c-4 -24 -19 -45 -39 -60l-1 -10c16 -21 35 -31 53 -39c30 -14 55 -38 55 -76c0 -40 -35 -76 -78 -76c-40 0 -75 32 -75 75c0 31 18 53 18 94v11l-7 5c-7 -1 -13 -1 -20 -1c-21 0 -40 7 -56 18l-13 -1
c-14 -21 -18 -42 -21 -61c-7 -43 -28 -83 -78 -83c-40 0 -77 33 -77 77c0 43 36 75 83 75c17 0 45 -2 74 13l3 14c-6 13 -10 28 -10 43c0 9 1 17 3 25l-5 13c-9 3 -18 3 -27 3c-28 0 -44 -7 -64 -7c-44 0 -77 35 -77 76s33 77 76 77c36 0 56 -20 67 -42
c11 -23 14 -56 38 -81l15 1c18 19 43 30 69 30l11 7c0 53 -34 73 -34 114c0 44 35 73 76 73c44 0 74 -35 74 -76c0 -64 -58 -59 -88 -116l4 -12c23 -12 41 -32 48 -58l12 -6c55 20 60 70 118 70c40 0 73 -34 73 -77zM368 278c0 38 -28 68 -67 68c-38 0 -67 -30 -67 -68
c0 -39 29 -70 67 -70c39 0 67 31 67 70z" />
    <glyph glyph-name="ordfeminine" unicode="&#xaa;" horiz-adv-x="338" 
d="M313 421c-4 -57 -25 -80 -59 -80c-22 0 -38 13 -47 41c-22 -26 -57 -42 -88 -42c-39 0 -67 25 -67 64c0 49 30 66 58 78c32 13 71 22 95 34v29c0 21 -7 64 -50 64c-20 0 -30 -11 -35 -17c0 -10 5 -29 5 -41c0 -13 -7 -27 -29 -27s-29 15 -29 32c0 36 50 64 91 64
c52 0 99 -9 99 -88c0 -50 -4 -110 -4 -128c0 -8 4 -34 27 -34c22 0 23 31 24 51h9zM298 245h-241v14h241v-14zM205 502c-53 -19 -98 -41 -98 -88c0 -32 17 -51 39 -51c29 0 44 13 56 28z" />
    <glyph glyph-name="ordmasculine" unicode="&#xba;" horiz-adv-x="358" 
d="M311 481c0 -80 -54 -145 -134 -145c-66 0 -130 54 -130 141c0 85 58 143 133 143c76 0 131 -60 131 -139zM299 245h-241v14h241v-14zM252 480c0 58 -17 126 -72 126c-59 0 -75 -73 -75 -125c0 -64 20 -130 75 -130c53 0 72 64 72 129z" />
    <glyph glyph-name="Omega" unicode="&#x3a9;" horiz-adv-x="556" 
d="M519 245h-482v29h482v-29z" />
    <glyph glyph-name="Omega" unicode="&#x2126;" horiz-adv-x="556" 
d="M519 245h-482v29h482v-29z" />
    <glyph glyph-name="ae" unicode="&#xe6;" horiz-adv-x="699" 
d="M682 107c-34 -71 -96 -117 -176 -117c-112 0 -158 63 -180 102c-50 -83 -123 -102 -175 -102c-69 0 -114 37 -114 101c0 82 48 108 98 127c57 22 123 40 166 64v68c0 53 -26 100 -96 100c-38 0 -58 -20 -66 -32c1 -18 7 -52 7 -69c0 -21 -20 -38 -49 -38
c-25 0 -34 24 -34 47c0 59 76 106 148 106c65 0 119 -9 146 -62c20 23 65 62 138 62c130 0 178 -87 178 -199v-9h-300c0 -36 -6 -236 151 -236c79 0 108 33 146 94zM598 276c0 92 -17 174 -101 174c-70 0 -121 -64 -124 -176zM302 258c-112 -32 -189 -64 -189 -155
c0 -55 25 -85 74 -85c50 0 84 28 111 61z" />
    <glyph glyph-name="oslash" unicode="&#xf8;" horiz-adv-x="502" 
d="M97 49c-40 41 -66 100 -66 174c0 142 89 241 223 241c59 0 108 -20 145 -55l72 87l12 -10s-41 -49 -73 -87c39 -42 61 -101 61 -168c0 -131 -83 -244 -226 -244c-50 0 -99 18 -137 52c-24 -29 -55 -66 -55 -66l-11 9zM132 90l235 281c-22 46 -59 79 -115 79
c-113 0 -144 -120 -144 -218c0 -52 8 -102 24 -142zM374 355l-235 -280c24 -44 60 -74 113 -74c96 0 142 106 142 229c0 44 -6 88 -20 125z" />
    <glyph glyph-name="questiondown" unicode="&#xbf;" horiz-adv-x="458" 
d="M48 188c0 117 90 194 219 212l4 126h17v-188c-69 -11 -162 -31 -162 -144c0 -133 56 -186 128 -186c25 0 55 3 65 19c-5 31 -6 56 -2 73c7 19 20 30 45 30c27 0 40 -20 40 -46c0 -43 -48 -91 -148 -91c-145 0 -206 93 -206 195zM219 642c0 32 26 57 58 57s58 -25 58 -57
s-26 -58 -58 -58s-58 26 -58 58z" />
    <glyph glyph-name="exclamdown" unicode="&#xa1;" horiz-adv-x="359" 
d="M130 54c0 35 34 258 45 434h16c7 -174 43 -398 43 -434c0 -32 -21 -61 -52 -61s-52 29 -52 61zM125 645c0 32 26 57 58 57s57 -25 57 -57s-25 -58 -57 -58s-58 26 -58 58z" />
    <glyph glyph-name="logicalnot" unicode="&#xac;" horiz-adv-x="556" 
d="M491 39h-32v218h-417v28h449v-246z" />
    <glyph glyph-name="radical" unicode="&#x221a;" horiz-adv-x="591" 
d="M458 478c0 -87 -99 -146 -213 -146c-60 0 -135 31 -135 91c0 34 26 56 53 56c21 0 35 -14 35 -37c0 -34 -35 -25 -35 -48c0 -22 32 -47 82 -47c66 0 141 60 141 129c0 41 -14 77 -61 77c-25 0 -51 -23 -78 -45l-12 17c84 46 147 73 147 138c0 45 -34 69 -74 69
c-34 0 -110 -30 -110 -81c0 -23 21 -37 45 -37c28 0 38 19 49 28l7 -7c-18 -23 -50 -46 -80 -46c-54 0 -71 18 -71 47c0 54 92 110 178 110c94 0 124 -55 124 -88c0 -31 -31 -71 -114 -91c54 0 122 -20 122 -89zM526 248h-465v21h465v-21zM489 -152h-8c-1 19 -8 43 -22 54
c-11 9 -40 7 -83 7v-84c0 -14 6 -26 20 -31c10 -4 36 -8 50 -9v-12h-204v12c13 1 41 3 50 6c13 4 21 16 21 30v88h-212v27l250 248h25v-247c41 0 70 -1 84 9c12 9 20 33 20 49h9v-147zM313 -63v190l-191 -190h191z" />
    <glyph glyph-name="florin" unicode="&#x192;" horiz-adv-x="496" 
d="M509 546c0 -23 -15 -51 -44 -51c-25 0 -49 16 -49 49c0 14 3 31 10 52c-5 8 -16 12 -26 12c-58 0 -120 -69 -144 -212l-10 -59h126l-5 -21h-124c-19 -112 -28 -175 -45 -249c-17 -76 -46 -152 -103 -202c-49 -43 -83 -58 -129 -58c-74 0 -104 34 -104 74
c0 27 16 51 44 51c24 0 49 -20 49 -56c0 -17 -7 -37 -15 -46c5 -6 21 -9 28 -9c74 0 118 70 149 218c26 123 34 193 48 277h-106l4 21h105c18 108 47 175 104 232c42 42 92 55 130 55c56 0 107 -37 107 -78z" />
    <glyph glyph-name="approxequal" unicode="&#x2248;" horiz-adv-x="556" 
d="M481 36l-202 202l-202 -202l-22 22l202 202l-202 202l21 20l201 -201l203 203l23 -23l-203 -203l201 -201z" />
    <glyph glyph-name="Delta" unicode="&#x394;" horiz-adv-x="546" 
d="M393 374c0 20 -5 36 -14 50h-203v-355c0 -22 9 -39 27 -46c15 -6 46 -10 64 -11v-12h-231v12c18 1 24 1 39 5c24 7 32 24 32 46v361h-103v25h103v32c0 83 25 148 73 200c28 31 81 66 144 66c95 0 144 -49 144 -106c0 -21 -12 -57 -48 -57c-20 0 -49 11 -49 45
c0 33 12 45 16 53c-1 15 -8 47 -69 47c-70 0 -141 -64 -141 -218v-62h177l101 8l7 -7v-411c0 -83 -13 -156 -63 -207c-42 -42 -72 -57 -117 -57c-48 0 -91 25 -91 66c0 21 21 46 51 46c25 0 50 -13 50 -44c0 -16 -10 -33 -8 -43c3 -1 22 -4 25 -4c63 0 84 54 84 215v363z
" />
    <glyph glyph-name="Delta" unicode="&#x2206;" horiz-adv-x="546" 
d="M393 374c0 20 -5 36 -14 50h-203v-355c0 -22 9 -39 27 -46c15 -6 46 -10 64 -11v-12h-231v12c18 1 24 1 39 5c24 7 32 24 32 46v361h-103v25h103v32c0 83 25 148 73 200c28 31 81 66 144 66c95 0 144 -49 144 -106c0 -21 -12 -57 -48 -57c-20 0 -49 11 -49 45
c0 33 12 45 16 53c-1 15 -8 47 -69 47c-70 0 -141 -64 -141 -218v-62h177l101 8l7 -7v-411c0 -83 -13 -156 -63 -207c-42 -42 -72 -57 -117 -57c-48 0 -91 25 -91 66c0 21 21 46 51 46c25 0 50 -13 50 -44c0 -16 -10 -33 -8 -43c3 -1 22 -4 25 -4c63 0 84 54 84 215v363z
" />
    <glyph glyph-name="guillemotleft" unicode="&#xab;" horiz-adv-x="541" 
d="M481 25l-8 -7c-45 39 -160 138 -197 169c-16 14 -22 20 -22 37s5 23 20 35c34 28 156 129 199 170l8 -7l-153 -200zM272 25l-8 -7c-45 39 -160 138 -197 169c-16 14 -22 20 -22 37s5 23 20 35c34 28 156 129 199 170l8 -7l-153 -200z" />
    <glyph glyph-name="guillemotright" unicode="&#xbb;" horiz-adv-x="541" 
d="M269 25l153 197l-153 200l8 7c43 -41 165 -142 199 -170c15 -12 20 -18 20 -35s-6 -23 -22 -37c-37 -31 -152 -130 -197 -169zM60 25l153 197l-153 200l8 7c43 -41 165 -142 199 -170c15 -12 20 -18 20 -35s-6 -23 -22 -37c-37 -31 -152 -130 -197 -169z" />
    <glyph glyph-name="ellipsis" unicode="&#x2026;" horiz-adv-x="779" 
d="M718 50c0 -30 -25 -54 -55 -54s-54 24 -54 54s24 55 54 55s55 -25 55 -55zM444 50c0 -30 -25 -54 -55 -54s-54 24 -54 54s24 55 54 55s55 -25 55 -55zM170 50c0 -30 -25 -54 -55 -54s-54 24 -54 54s24 55 54 55s55 -25 55 -55z" />
    <glyph glyph-name="Agrave" unicode="&#xc0;" horiz-adv-x="674" 
d="M700 0h-290v12c35 2 105 13 105 38c0 7 -1 17 -4 24l-70 176h-252c-23 -57 -38 -96 -47 -128c-7 -23 -12 -42 -12 -56c0 -36 75 -52 119 -54v-12h-275v12c19 1 49 8 68 19c23 13 49 41 64 78c71 171 160 395 235 585h14c102 -256 204 -523 241 -615c8 -20 17 -36 41 -50
c18 -11 44 -16 63 -17v-12zM433 271l-118 301l-118 -301h236zM242 897c0 19 12 36 35 36c26 0 41 -12 59 -43c22 -37 48 -78 99 -152l-10 -9c-80 64 -116 90 -146 114c-25 20 -37 29 -37 54z" />
    <glyph glyph-name="Atilde" unicode="&#xc3;" horiz-adv-x="674" 
d="M700 0h-290v12c35 2 105 13 105 38c0 7 -1 17 -4 24l-70 176h-252c-23 -57 -38 -96 -47 -128c-7 -23 -12 -42 -12 -56c0 -36 75 -52 119 -54v-12h-275v12c19 1 49 8 68 19c23 13 49 41 64 78c71 171 160 395 235 585h14c102 -256 204 -523 241 -615c8 -20 17 -36 41 -50
c18 -11 44 -16 63 -17v-12zM433 271l-118 301l-118 -301h236zM531 892c-15 -57 -56 -118 -123 -118c-82 0 -100 55 -152 55c-42 0 -57 -28 -83 -73l-12 5c17 49 56 118 120 118c76 0 98 -54 147 -54c61 0 72 29 92 71z" />
    <glyph glyph-name="Otilde" unicode="&#xd5;" horiz-adv-x="760" 
d="M720 346c0 -102 -27 -190 -100 -263c-63 -63 -143 -98 -244 -98c-89 0 -169 34 -233 96s-103 145 -103 253c0 116 39 203 100 265c64 65 151 99 240 99c90 0 171 -28 249 -105c57 -57 91 -153 91 -247zM626 343c0 216 -103 335 -246 335c-144 0 -246 -119 -246 -346
c0 -185 86 -327 246 -327c161 0 246 140 246 338zM564 892c-15 -57 -56 -118 -123 -118c-82 0 -100 55 -152 55c-42 0 -57 -28 -83 -73l-12 5c17 49 56 118 120 118c76 0 98 -54 147 -54c61 0 72 29 92 71z" />
    <glyph glyph-name="OE" unicode="&#x152;" horiz-adv-x="1027" 
d="M950 683v-151h-17c-10 43 -57 123 -99 129c-24 3 -51 4 -83 4h-138v-300h97c56 0 71 21 83 33c15 15 25 65 28 91h17v-275h-17c-2 29 -16 83 -28 96c-13 14 -29 33 -83 33h-97v-231c0 -82 19 -91 120 -91c71 0 154 -3 178 22c30 31 68 114 78 144h15l-13 -187h-587
c-132 0 -364 72 -364 346c0 233 198 337 384 337h526zM532 575c0 56 -31 90 -117 90c-190 0 -278 -134 -278 -319c0 -188 120 -329 302 -329c86 0 93 28 93 56v502z" />
    <glyph glyph-name="oe" unicode="&#x153;" horiz-adv-x="796" 
d="M430 89c-38 -58 -101 -102 -185 -102c-112 0 -214 91 -214 236c0 142 89 241 223 241c79 0 140 -41 177 -98c34 55 89 98 161 98c130 0 178 -88 178 -199v-9h-300v-10c0 -128 43 -226 151 -226c79 0 108 33 146 94l12 -7c-34 -71 -96 -117 -176 -117
c-84 0 -140 42 -173 99zM695 276c0 92 -17 174 -101 174c-70 0 -121 -66 -124 -176zM394 230c0 108 -37 220 -142 220c-113 0 -144 -120 -144 -218c0 -122 42 -231 144 -231c96 0 142 106 142 229z" />
    <glyph glyph-name="endash" unicode="&#x2013;" horiz-adv-x="544" 
d="M493 243h-442v44h442v-44z" />
    <glyph glyph-name="emdash" unicode="&#x2014;" horiz-adv-x="934" 
d="M858 233h-782v43h782v-43z" />
    <glyph glyph-name="quotedblleft" unicode="&#x201c;" horiz-adv-x="336" 
d="M182 566c0 51 42 118 120 157l9 -15c-49 -29 -94 -71 -98 -128h30c41 0 58 -26 58 -53c0 -26 -24 -51 -48 -51c-54 0 -71 34 -71 90zM12 566c0 51 42 118 120 157l9 -15c-49 -29 -94 -71 -98 -128h30c41 0 58 -26 58 -53c0 -26 -24 -51 -48 -51c-54 0 -71 34 -71 90z" />
    <glyph glyph-name="quotedblright" unicode="&#x201d;" horiz-adv-x="336" 
d="M324 647c0 -51 -42 -118 -120 -157l-9 15c49 29 94 71 98 128h-30c-41 0 -58 26 -58 53c0 26 24 51 48 51c54 0 71 -34 71 -90zM154 647c0 -51 -42 -118 -120 -157l-9 15c49 29 94 71 98 128h-30c-41 0 -58 26 -58 53c0 26 24 51 48 51c54 0 71 -34 71 -90z" />
    <glyph glyph-name="quoteleft" unicode="&#x2018;" horiz-adv-x="166" 
d="M12 566c0 51 42 118 120 157l9 -15c-49 -29 -94 -71 -98 -128h30c41 0 58 -26 58 -53c0 -26 -24 -51 -48 -51c-54 0 -71 33 -71 90z" />
    <glyph glyph-name="quoteright" unicode="&#x2019;" horiz-adv-x="166" 
d="M154 647c0 -51 -42 -118 -120 -157l-9 15c49 29 94 71 98 128h-30c-41 0 -58 26 -58 53c0 26 24 51 48 51c54 0 71 -34 71 -90z" />
    <glyph glyph-name="divide" unicode="&#xf7;" horiz-adv-x="556" 
d="M336 443c0 -32 -26 -57 -58 -57s-57 25 -57 57s25 58 57 58s58 -26 58 -58zM519 245h-482v29h482v-29zM336 75c0 -32 -26 -57 -58 -57s-57 25 -57 57s25 58 57 58s58 -26 58 -58z" />
    <glyph glyph-name="lozenge" unicode="&#x25ca;" horiz-adv-x="361" 
d="M359 369c-29 -53 -87 -91 -144 -91c-103 0 -162 79 -162 174c0 86 64 168 155 168c94 0 143 -69 143 -141v-15h-232c1 -91 35 -151 117 -151c49 0 84 28 108 66zM285 484c0 55 -18 115 -78 115c-49 0 -83 -47 -87 -116z" />
    <glyph glyph-name="ydieresis" unicode="&#xff;" horiz-adv-x="448" 
d="M471 440c-16 -2 -61 -25 -74 -56c-15 -35 -76 -181 -121 -288c-21 -50 -37 -93 -45 -111c-74 -171 -113 -210 -174 -210c-24 0 -67 15 -67 60c0 23 20 51 51 51c19 0 45 -9 45 -44v-34c41 10 92 95 128 185c-78 205 -107 278 -155 396c-12 30 -43 46 -72 50v12h196v-13
c-23 -1 -55 -8 -55 -23c0 -4 4 -12 7 -21c19 -53 77 -197 118 -305h1c41 98 76 182 116 286c3 8 7 20 7 28c0 19 -61 34 -77 36v12h171v-11zM380 643c0 -29 -22 -53 -51 -53c-28 0 -50 22 -50 49c0 28 22 51 50 51c30 0 51 -22 51 -47zM169 643c0 -29 -22 -53 -52 -53
c-27 0 -50 22 -50 49c0 28 23 51 50 51c30 0 52 -22 52 -47z" />
    <glyph glyph-name="Ydieresis" unicode="&#x178;" horiz-adv-x="586" 
d="M622 671c-9 0 -39 -8 -49 -12c-19 -7 -37 -20 -59 -51c-47 -65 -116 -186 -164 -275c-20 -37 -27 -76 -27 -102v-153c0 -24 8 -40 31 -50c12 -5 64 -15 82 -16v-12h-308v12c18 1 69 6 82 11c24 9 31 28 31 50v200c0 12 -14 40 -23 62c-43 87 -92 180 -133 252
c-17 30 -36 54 -60 68c-18 11 -40 15 -59 16v12h292v-12c-35 -2 -106 -10 -106 -34c0 -14 91 -182 161 -311c73 114 172 274 172 297c0 31 -77 45 -123 48v12h260v-12zM449 845c0 -29 -22 -53 -51 -53c-28 0 -50 22 -50 49c0 28 22 51 50 51c30 0 51 -22 51 -47zM238 845
c0 -29 -22 -53 -52 -53c-27 0 -50 22 -50 49c0 28 23 51 50 51c30 0 52 -22 52 -47z" />
    <glyph glyph-name="fraction" unicode="&#x2044;" horiz-adv-x="322" 
d="M406 739l-504 -943l-26 13l503 943z" />
    <glyph glyph-name="fraction" unicode="&#x2215;" horiz-adv-x="322" 
d="M406 739l-504 -943l-26 13l503 943z" />
    <glyph glyph-name="currency" unicode="&#xa4;" horiz-adv-x="595" 
d="M105 341h-74v13h76c19 146 109 266 253 266c110 0 167 -59 167 -117c0 -44 -21 -67 -44 -67c-30 0 -45 22 -45 48c0 30 20 33 20 63c-6 35 -48 56 -102 56c-96 0 -157 -94 -168 -249h235v-13h-236c0 -14 -1 -28 -1 -42c0 -15 1 -29 1 -44h196v-13h-194
c12 -120 62 -223 172 -223c88 0 132 59 165 130l11 -6c-39 -88 -92 -157 -203 -157c-127 0 -214 89 -229 256c1 0 -74 0 -74 0v13h73c0 13 -1 26 -1 40c0 16 1 31 2 46z" />
    <glyph glyph-name="guilsinglleft" unicode="&#x2039;" horiz-adv-x="332" 
d="M272 25l-8 -7c-45 39 -160 138 -197 169c-16 14 -22 20 -22 37s5 23 20 35c34 28 156 129 199 170l8 -7l-153 -200z" />
    <glyph glyph-name="guilsinglright" unicode="&#x203a;" horiz-adv-x="332" 
d="M60 25l153 197l-153 200l8 7c43 -41 165 -142 199 -170c15 -12 20 -18 20 -35s-6 -23 -22 -37c-37 -31 -152 -130 -197 -169z" />
    <glyph glyph-name="daggerdbl" unicode="&#x2021;" horiz-adv-x="435" 
d="M372 572c0 -17 -10 -30 -30 -30c-30 0 -49 24 -81 24c-14 0 -20 -16 -23 -37s-12 -116 -14 -162h-13c-2 46 -12 141 -15 162s-8 37 -23 37c-32 0 -47 -24 -77 -24c-22 0 -34 13 -34 30c0 13 9 27 26 27c16 0 26 -12 30 -30c14 2 30 10 52 10c15 0 31 -3 40 -11
c-5 25 -24 61 -24 90c0 20 9 40 31 40s31 -20 31 -40c0 -29 -19 -66 -24 -90c9 8 25 11 40 11c23 0 39 -8 53 -10c4 18 17 30 33 30c17 0 22 -14 22 -27zM63 131c0 17 10 30 30 30c30 0 49 -24 81 -24c14 0 20 16 23 37s12 116 14 162h13c2 -46 12 -141 15 -162
s8 -37 23 -37c32 0 47 24 77 24c22 0 34 -13 34 -30c0 -13 -9 -27 -26 -27c-16 0 -26 12 -30 30c-14 -2 -30 -10 -52 -10c-15 0 -31 3 -40 11c5 -25 24 -61 24 -90c0 -20 -9 -40 -31 -40s-31 20 -31 40c0 29 19 66 24 90c-9 -8 -25 -11 -40 -11c-23 0 -39 8 -53 10
c-4 -18 -17 -30 -33 -30c-17 0 -22 14 -22 27z" />
    <glyph glyph-name="periodcentered" unicode="&#xb7;" horiz-adv-x="228" 
d="M173 272c0 -32 -26 -57 -58 -57s-57 25 -57 57s25 58 57 58s58 -26 58 -58z" />
    <glyph glyph-name="periodcentered" unicode="&#x2219;" horiz-adv-x="228" 
d="M173 272c0 -32 -26 -57 -58 -57s-57 25 -57 57s25 58 57 58s58 -26 58 -58z" />
    <glyph glyph-name="quotesinglbase" unicode="&#x201a;" horiz-adv-x="169" 
d="M145 16c0 -53 -45 -113 -123 -152l-9 15c49 29 94 66 98 123h-30c-43 0 -61 27 -61 56c0 27 25 53 51 53c56 0 74 -35 74 -95z" />
    <glyph glyph-name="quotedblbase" unicode="&#x201e;" horiz-adv-x="338" 
d="M314 16c0 -53 -45 -113 -123 -152l-9 15c49 29 94 66 98 123h-30c-43 0 -61 27 -61 56c0 27 25 53 51 53c56 0 74 -35 74 -95zM144 16c0 -53 -45 -113 -123 -152l-9 15c49 29 94 66 98 123h-30c-43 0 -61 27 -61 56c0 27 25 53 51 53c56 0 74 -35 74 -95z" />
    <glyph glyph-name="perthousand" unicode="&#x2030;" horiz-adv-x="1208" 
d="M375 461c0 -85 -80 -151 -157 -151c-74 0 -149 50 -149 151c0 95 82 159 149 159c75 0 157 -45 157 -159zM646 676l-430 -774l-19 10l429 774zM1139 137c0 -87 -81 -151 -157 -151c-75 0 -149 51 -149 150c0 94 83 160 149 160c75 0 157 -44 157 -159zM769 137
c0 -87 -81 -151 -157 -151c-75 0 -149 51 -149 150c0 94 83 160 149 160c75 0 157 -44 157 -159zM312 460c0 89 -32 144 -91 144c-62 0 -90 -61 -90 -139c0 -79 27 -138 92 -138c50 0 89 50 89 133zM1076 135c0 87 -32 144 -91 144c-63 0 -90 -64 -90 -139
c0 -77 28 -138 92 -138c48 0 89 54 89 133zM706 135c0 87 -32 144 -91 144c-63 0 -90 -64 -90 -139c0 -77 28 -138 92 -138c48 0 89 54 89 133z" />
    <glyph glyph-name="Acircumflex" unicode="&#xc2;" horiz-adv-x="674" 
d="M700 0h-290v12c35 2 105 13 105 38c0 7 -1 17 -4 24l-70 176h-252c-23 -57 -38 -96 -47 -128c-7 -23 -12 -42 -12 -56c0 -36 75 -52 119 -54v-12h-275v12c19 1 49 8 68 19c23 13 49 41 64 78c71 171 160 395 235 585h14c102 -256 204 -523 241 -615c8 -20 17 -36 41 -50
c18 -11 44 -16 63 -17v-12zM433 271l-118 301l-118 -301h236zM498 738l-10 -9l-140 139l-143 -139l-10 9c53 77 88 138 112 175c13 19 18 22 41 22c22 0 28 -4 39 -20c25 -36 58 -99 111 -177z" />
    <glyph glyph-name="Ecircumflex" unicode="&#xca;" horiz-adv-x="648" 
d="M625 187l-13 -187h-569v12c18 1 64 5 79 11c24 9 31 27 31 49v533c0 22 -6 39 -31 49c-19 8 -61 16 -79 17v12h528v-151h-17c-10 43 -57 123 -99 129c-24 3 -51 4 -83 4h-138v-300h97c56 0 71 21 83 33c15 15 25 65 28 91h17v-275h-17c-2 29 -16 83 -28 96
c-13 14 -29 33 -83 33h-97v-231c0 -82 19 -91 120 -91c71 0 154 -3 178 22c30 31 68 114 78 144h15zM475 738l-10 -9l-140 139l-143 -139l-10 9c53 77 88 138 112 175c13 19 18 22 41 22c22 0 28 -4 39 -20c25 -36 58 -99 111 -177z" />
    <glyph glyph-name="Aacute" unicode="&#xc1;" horiz-adv-x="674" 
d="M700 0h-290v12c35 2 105 13 105 38c0 7 -1 17 -4 24l-70 176h-252c-23 -57 -38 -96 -47 -128c-7 -23 -12 -42 -12 -56c0 -36 75 -52 119 -54v-12h-275v12c19 1 49 8 68 19c23 13 49 41 64 78c71 171 160 395 235 585h14c102 -256 204 -523 241 -615c8 -20 17 -36 41 -50
c18 -11 44 -16 63 -17v-12zM433 271l-118 301l-118 -301h236zM451 897c0 -25 -12 -34 -37 -54c-30 -24 -66 -50 -146 -114l-10 9c51 74 77 115 99 152c18 31 33 43 59 43c23 0 35 -17 35 -36z" />
    <glyph glyph-name="Edieresis" unicode="&#xcb;" horiz-adv-x="648" 
d="M625 187l-13 -187h-569v12c18 1 64 5 79 11c24 9 31 27 31 49v533c0 22 -6 39 -31 49c-19 8 -61 16 -79 17v12h528v-151h-17c-10 43 -57 123 -99 129c-24 3 -51 4 -83 4h-138v-300h97c56 0 71 21 83 33c15 15 25 65 28 91h17v-275h-17c-2 29 -16 83 -28 96
c-13 14 -29 33 -83 33h-97v-231c0 -82 19 -91 120 -91c71 0 154 -3 178 22c30 31 68 114 78 144h15zM480 835c0 -29 -22 -53 -51 -53c-28 0 -50 22 -50 49c0 28 22 51 50 51c30 0 51 -22 51 -47zM269 835c0 -29 -22 -53 -52 -53c-27 0 -50 22 -50 49c0 28 23 51 50 51
c30 0 52 -22 52 -47z" />
    <glyph glyph-name="Egrave" unicode="&#xc8;" horiz-adv-x="648" 
d="M625 187l-13 -187h-569v12c18 1 64 5 79 11c24 9 31 27 31 49v533c0 22 -6 39 -31 49c-19 8 -61 16 -79 17v12h528v-151h-17c-10 43 -57 123 -99 129c-24 3 -51 4 -83 4h-138v-300h97c56 0 71 21 83 33c15 15 25 65 28 91h17v-275h-17c-2 29 -16 83 -28 96
c-13 14 -29 33 -83 33h-97v-231c0 -82 19 -91 120 -91c71 0 154 -3 178 22c30 31 68 114 78 144h15zM219 897c0 19 12 36 35 36c26 0 41 -12 59 -43c22 -37 48 -78 99 -152l-10 -9c-80 64 -116 90 -146 114c-25 20 -37 29 -37 54z" />
    <glyph glyph-name="Iacute" unicode="&#xcd;" horiz-adv-x="391" 
d="M340 0h-289v12c18 1 60 4 73 9c24 9 31 26 31 48v537c0 22 -5 38 -31 48c-18 7 -55 16 -73 17v12h289v-12c-18 -1 -55 -6 -73 -12c-25 -8 -31 -26 -31 -48v-537c0 -22 8 -38 31 -48c12 -5 55 -13 73 -14v-12zM299 897c0 -25 -12 -34 -37 -54c-30 -24 -66 -50 -146 -114
l-10 9c51 74 77 115 99 152c18 31 33 43 59 43c23 0 35 -17 35 -36z" />
    <glyph glyph-name="Icircumflex" unicode="&#xce;" horiz-adv-x="391" 
d="M340 0h-289v12c18 1 60 4 73 9c24 9 31 26 31 48v537c0 22 -5 38 -31 48c-18 7 -55 16 -73 17v12h289v-12c-18 -1 -55 -6 -73 -12c-25 -8 -31 -26 -31 -48v-537c0 -22 8 -38 31 -48c12 -5 55 -13 73 -14v-12zM346 738l-10 -9l-140 139l-143 -139l-10 9
c53 77 88 138 112 175c13 19 18 22 41 22c22 0 28 -4 39 -20c25 -36 58 -99 111 -177z" />
    <glyph glyph-name="Idieresis" unicode="&#xcf;" horiz-adv-x="391" 
d="M340 0h-289v12c18 1 60 4 73 9c24 9 31 26 31 48v537c0 22 -5 38 -31 48c-18 7 -55 16 -73 17v12h289v-12c-18 -1 -55 -6 -73 -12c-25 -8 -31 -26 -31 -48v-537c0 -22 8 -38 31 -48c12 -5 55 -13 73 -14v-12zM351 830c0 -29 -22 -53 -51 -53c-28 0 -50 22 -50 49
c0 28 22 51 50 51c30 0 51 -22 51 -47zM140 830c0 -29 -22 -53 -52 -53c-27 0 -50 22 -50 49c0 28 23 51 50 51c30 0 52 -22 52 -47z" />
    <glyph glyph-name="Igrave" unicode="&#xcc;" horiz-adv-x="391" 
d="M340 0h-289v12c18 1 60 4 73 9c24 9 31 26 31 48v537c0 22 -5 38 -31 48c-18 7 -55 16 -73 17v12h289v-12c-18 -1 -55 -6 -73 -12c-25 -8 -31 -26 -31 -48v-537c0 -22 8 -38 31 -48c12 -5 55 -13 73 -14v-12zM90 897c0 19 12 36 35 36c26 0 41 -12 59 -43
c22 -37 48 -78 99 -152l-10 -9c-80 64 -116 90 -146 114c-25 20 -37 29 -37 54z" />
    <glyph glyph-name="Oacute" unicode="&#xd3;" horiz-adv-x="760" 
d="M720 346c0 -102 -27 -190 -100 -263c-63 -63 -143 -98 -244 -98c-89 0 -169 34 -233 96s-103 145 -103 253c0 116 39 203 100 265c64 65 151 99 240 99c90 0 171 -28 249 -105c57 -57 91 -153 91 -247zM626 343c0 216 -103 335 -246 335c-144 0 -246 -119 -246 -346
c0 -185 86 -327 246 -327c161 0 246 140 246 338zM484 897c0 -25 -12 -34 -37 -54c-30 -24 -66 -50 -146 -114l-10 9c51 74 77 115 99 152c18 31 33 43 59 43c23 0 35 -17 35 -36z" />
    <glyph glyph-name="Ocircumflex" unicode="&#xd4;" horiz-adv-x="760" 
d="M720 346c0 -102 -27 -190 -100 -263c-63 -63 -143 -98 -244 -98c-89 0 -169 34 -233 96s-103 145 -103 253c0 116 39 203 100 265c64 65 151 99 240 99c90 0 171 -28 249 -105c57 -57 91 -153 91 -247zM626 343c0 216 -103 335 -246 335c-144 0 -246 -119 -246 -346
c0 -185 86 -327 246 -327c161 0 246 140 246 338zM531 738l-10 -9l-140 139l-143 -139l-10 9c53 77 88 138 112 175c13 19 18 22 41 22c22 0 28 -4 39 -20c25 -36 58 -99 111 -177z" />
    <glyph glyph-name="apple" unicode="&#xf8ff;" horiz-adv-x="613" 
d="M595 291c0 -42 -33 -74 -75 -74c-47 0 -61 41 -116 50l-9 -8c-4 -24 -19 -45 -39 -60l-1 -10c16 -21 35 -31 53 -39c30 -14 55 -38 55 -76c0 -40 -35 -76 -78 -76c-40 0 -75 32 -75 75c0 31 18 53 18 94v11l-7 5c-7 -1 -13 -1 -20 -1c-21 0 -40 7 -56 18l-13 -1
c-14 -21 -18 -42 -21 -61c-7 -43 -28 -83 -78 -83c-40 0 -77 33 -77 77c0 43 36 75 83 75c17 0 45 -2 74 13l3 14c-6 13 -10 28 -10 43c0 9 1 17 3 25l-5 13c-9 3 -18 3 -27 3c-28 0 -44 -7 -64 -7c-44 0 -77 35 -77 76s33 77 76 77c36 0 56 -20 67 -42
c11 -23 14 -56 38 -81l15 1c18 19 43 30 69 30l11 7c0 53 -34 73 -34 114c0 44 35 73 76 73c44 0 74 -35 74 -76c0 -64 -58 -59 -88 -116l4 -12c23 -12 41 -32 48 -58l12 -6c55 20 60 70 118 70c40 0 73 -34 73 -77zM368 278c0 38 -28 68 -67 68c-38 0 -67 -30 -67 -68
c0 -39 29 -70 67 -70c39 0 67 31 67 70z" />
    <glyph glyph-name="Ograve" unicode="&#xd2;" horiz-adv-x="760" 
d="M720 346c0 -102 -27 -190 -100 -263c-63 -63 -143 -98 -244 -98c-89 0 -169 34 -233 96s-103 145 -103 253c0 116 39 203 100 265c64 65 151 99 240 99c90 0 171 -28 249 -105c57 -57 91 -153 91 -247zM626 343c0 216 -103 335 -246 335c-144 0 -246 -119 -246 -346
c0 -185 86 -327 246 -327c161 0 246 140 246 338zM275 897c0 19 12 36 35 36c26 0 41 -12 59 -43c22 -37 48 -78 99 -152l-10 -9c-80 64 -116 90 -146 114c-25 20 -37 29 -37 54z" />
    <glyph glyph-name="Uacute" unicode="&#xda;" horiz-adv-x="771" 
d="M764 671c-18 0 -72 -12 -91 -23c-29 -17 -33 -78 -33 -132v-330c0 -112 -92 -202 -253 -202c-160 0 -247 88 -247 175v445c0 22 -8 38 -31 50c-18 9 -54 16 -70 17v12h286v-12c-18 -1 -54 -7 -72 -13c-25 -8 -31 -27 -31 -49v-425c0 -93 60 -164 187 -164
c139 0 208 73 208 165v325c0 69 -11 121 -34 134c-28 16 -84 26 -109 27v12h290v-12zM489 897c0 -25 -12 -34 -37 -54c-30 -24 -66 -50 -146 -114l-10 9c51 74 77 115 99 152c18 31 33 43 59 43c23 0 35 -17 35 -36z" />
    <glyph glyph-name="Ucircumflex" unicode="&#xdb;" horiz-adv-x="771" 
d="M764 671c-18 0 -72 -12 -91 -23c-29 -17 -33 -78 -33 -132v-330c0 -112 -92 -202 -253 -202c-160 0 -247 88 -247 175v445c0 22 -8 38 -31 50c-18 9 -54 16 -70 17v12h286v-12c-18 -1 -54 -7 -72 -13c-25 -8 -31 -27 -31 -49v-425c0 -93 60 -164 187 -164
c139 0 208 73 208 165v325c0 69 -11 121 -34 134c-28 16 -84 26 -109 27v12h290v-12zM536 738l-10 -9l-140 139l-143 -139l-10 9c53 77 88 138 112 175c13 19 18 22 41 22c22 0 28 -4 39 -20c25 -36 58 -99 111 -177z" />
    <glyph glyph-name="Ugrave" unicode="&#xd9;" horiz-adv-x="771" 
d="M764 671c-18 0 -72 -12 -91 -23c-29 -17 -33 -78 -33 -132v-330c0 -112 -92 -202 -253 -202c-160 0 -247 88 -247 175v445c0 22 -8 38 -31 50c-18 9 -54 16 -70 17v12h286v-12c-18 -1 -54 -7 -72 -13c-25 -8 -31 -27 -31 -49v-425c0 -93 60 -164 187 -164
c139 0 208 73 208 165v325c0 69 -11 121 -34 134c-28 16 -84 26 -109 27v12h290v-12zM280 897c0 19 12 36 35 36c26 0 41 -12 59 -43c22 -37 48 -78 99 -152l-10 -9c-80 64 -116 90 -146 114c-25 20 -37 29 -37 54z" />
    <glyph glyph-name="dotlessi" unicode="&#x131;" horiz-adv-x="270" 
d="M247 0h-211v10c18 1 30 1 44 6c19 6 27 26 27 46v307c0 21 -12 39 -28 50c-12 8 -40 18 -58 19v8l148 11l7 -7v-382c0 -22 9 -38 27 -47c17 -6 32 -10 44 -11v-10z" />
    <glyph glyph-name="circumflex" unicode="&#x2c6;" 
d="M401 536l-10 -9l-140 139l-143 -139l-10 9c53 77 88 138 112 175c13 19 18 22 41 22c22 0 28 -4 39 -20c25 -36 58 -99 111 -177z" />
    <glyph glyph-name="tilde" unicode="&#x2dc;" 
d="M434 690c-15 -57 -56 -118 -123 -118c-82 0 -100 55 -152 55c-42 0 -57 -28 -83 -73l-12 5c17 49 56 118 120 118c76 0 98 -54 147 -54c61 0 72 29 92 71z" />
    <glyph glyph-name="macron" unicode="&#xaf;" 
d="M415 602h-330v49h330v-49z" />
    <glyph glyph-name="macron" unicode="&#x2c9;" 
d="M415 602h-330v49h330v-49z" />
    <glyph glyph-name="breve" unicode="&#x2d8;" 
d="M399 723c-37 -138 -101 -184 -149 -184s-112 43 -149 181l9 3c34 -72 79 -123 140 -123s105 51 140 126z" />
    <glyph glyph-name="dotaccent" unicode="&#x2d9;" 
d="M308 659c0 -33 -26 -61 -60 -61c-31 0 -57 26 -57 57c0 32 26 59 57 59c35 0 60 -26 60 -55z" />
    <glyph glyph-name="ring" unicode="&#x2da;" 
d="M359 629c0 -57 -41 -98 -109 -98c-69 0 -109 39 -109 98c0 58 47 98 109 98c65 0 109 -39 109 -98zM313 629c0 43 -17 83 -63 83c-44 0 -63 -37 -63 -83c0 -44 17 -83 63 -83s63 38 63 83z" />
    <glyph glyph-name="cedilla" unicode="&#xb8;" 
d="M379 -134c0 -82 -95 -94 -198 -94v19c62 0 136 -3 136 57c0 38 -46 42 -85 42v118h22v-66c56 0 125 -16 125 -76z" />
    <glyph glyph-name="hungarumlaut" unicode="&#x2dd;" 
d="M425 705c0 -25 -12 -34 -37 -54c-30 -24 -61 -50 -141 -114l-10 9c51 74 77 115 99 152c18 31 31 43 57 43c20 0 32 -17 32 -36zM241 705c0 -25 -12 -34 -37 -54c-30 -24 -61 -50 -141 -114l-10 9c51 74 77 115 99 152c18 31 31 43 57 43c20 0 32 -17 32 -36z" />
    <glyph glyph-name="ogonek" unicode="&#x2db;" 
d="M339 -226c-121 1 -192 21 -192 83c0 56 41 99 123 143h24c-54 -53 -76 -97 -76 -136c0 -43 35 -67 121 -74v-16z" />
    <glyph glyph-name="caron" unicode="&#x2c7;" 
d="M98 736l10 9l140 -139l143 139l10 -9c-53 -77 -88 -138 -112 -175c-13 -19 -18 -22 -41 -22c-22 0 -28 4 -39 20c-25 36 -58 99 -111 177z" />
    <glyph glyph-name="Euro" unicode="&#x20ac;" horiz-adv-x="595" 
d="M105 341h-74v13h76c19 146 109 266 253 266c110 0 167 -59 167 -117c0 -44 -21 -67 -44 -67c-30 0 -45 22 -45 48c0 30 20 33 20 63c-6 35 -48 56 -102 56c-96 0 -157 -94 -168 -249h235v-13h-236c0 -14 -1 -28 -1 -42c0 -15 1 -29 1 -44h196v-13h-194
c12 -120 62 -223 172 -223c88 0 132 59 165 130l11 -6c-39 -88 -92 -157 -203 -157c-127 0 -214 89 -229 256c1 0 -74 0 -74 0v13h73c0 13 -1 26 -1 40c0 16 1 31 2 46z" />
    <glyph glyph-name="R.alt" horiz-adv-x="703" 
d="M723 0h-194c-15 73 -30 130 -57 198c-34 87 -99 141 -169 141h-69v-266c0 -22 7 -43 31 -52c13 -5 57 -8 75 -9v-12h-287v12c18 1 56 5 69 10c24 9 31 29 31 51v535c0 22 -6 42 -31 50c-18 6 -54 13 -72 14v11h341c88 0 186 -53 186 -156c0 -109 -100 -151 -190 -172v-7
c64 -15 139 -52 171 -132c16 -40 39 -114 45 -132c16 -48 41 -61 60 -65c20 -4 42 -6 60 -7v-12zM478 517c0 115 -63 149 -139 149h-105v-305h82c87 0 162 42 162 156z" />
    <glyph glyph-name="r.alt" horiz-adv-x="365" 
d="M366 412c0 -29 -16 -54 -46 -54c-26 0 -45 12 -45 42c0 5 2 17 7 28c-53 0 -93 -47 -107 -72v-287c0 -22 9 -39 27 -46c17 -7 45 -10 64 -11v-12h-232v12c18 1 30 1 44 6c19 6 28 24 28 46v303c0 21 -11 42 -27 53c-12 8 -31 15 -49 16v10l138 11l7 -7v-69h2
c44 57 96 81 135 81c25 0 54 -21 54 -50z" />
    <glyph glyph-name="ampersand.alt" horiz-adv-x="865" 
d="M838 595c0 -78 -63 -122 -166 -122c55 -24 95 -69 95 -172c0 -124 -131 -319 -405 -319c-152 0 -302 103 -302 235c0 87 54 123 109 153c-36 25 -71 57 -71 126c0 62 70 139 148 139c96 0 151 -61 169 -132l-7 -3c-34 54 -71 88 -126 88c-67 0 -121 -58 -121 -127
c0 -32 3 -69 23 -85c28 10 61 24 89 24c36 0 58 -14 58 -39c0 -21 -12 -37 -38 -37c-46 0 -86 17 -117 36c-12 -5 -59 -30 -59 -94c0 -102 99 -213 331 -213c190 0 296 132 296 253c0 119 -80 171 -156 171c-61 0 -116 -41 -116 -99c0 -64 39 -89 86 -89c31 0 38 5 54 15
c-28 11 -59 20 -59 56c0 34 26 48 40 48c23 0 59 -11 59 -61c0 -38 -33 -75 -84 -75c-56 0 -120 36 -120 118c0 108 105 137 166 137c26 0 86 -5 109 -5c56 0 95 35 95 78c0 64 -42 85 -80 85c-29 0 -40 -19 -40 -29c8 -10 40 -12 40 -43c0 -32 -14 -44 -38 -44
c-22 0 -50 17 -50 60c0 33 33 69 85 69c57 0 103 -36 103 -103z" />
    </font>
</defs>
</svg>
